Завантажити та скачати торренти українською


Hell:On - Once Upon A Chaos (2015) [FLAC] | Thrash / Death Metal

Нові коментарі

Нова тема   Відповісти
Останній раз роздавалося kolpavel (2016-12-05)
Автор Повідомлення
kolpavel 
VIP


З нами з: 04.05.14
Востаннє: 05.12.16
Повідомлень: 1059

2016-01-18 21:20  
Hell:On - Once Upon A Chaos (2015) [FLAC] | Thrash / Death Metal

Hell:On - Once Upon A Chaos (2015) [FLAC] | Thrash / Death Metal


Стиль: Thrash Death Metal
Країна, місто: Україна, Запоріжжя
Сайти: Офіційний сайт
Видавець: FERRRUM.COM
Виконавці:
Олександр Баєв - вокал
Антон Ворожцов - гітара
Олексій Пасько - гітара
Олександр Сітало - бас-гітара
Олег Таланів - ударні
Пісні:
    1. Filth
    2. Delirium
    3. Curse Of Flesh
    4. Self-destruction
    5. Obliteration
    6. Lustration
    7. Salvation In Death
    8. I'm God

Тривалість: 00:39:01
Мова: англiйська
Аудіо-кодек: FLAC
Бітрейт: 997 кб/с
Джерело: трекер
Додаткова інформація:
Запорізька група у своєму новому альбомі стрибнула не вище, а відразу через голову. Видати настільки динамічний і потужний полноформатник - дорогого коштує. Суміш класичного trash-а з домішкою death-настрою на groove-ритміці - шикарний концептуальний підхід, якщо говорити про «тру» метал. Додавши сюди тришарову метафоризацію та етнічні інструменти, ми отримали чудовий 'Once Upon A Chaos'. Неодноразові рецензії за кордоном продемонстрували репутацію трудомісткою пластинки, успіхи якої, ми більш ніж упевнені, на 2015-му не закінчаться.
Лог:
Exact Audio Copy V1.1 from 23. June 2015

Отчёт EAC об извлечении, выполненном 9. ноября 2015, 19:19

Hell:on / Once Upon a Chaos...

Дисковод: HL-DT-STDVD-RAM GH22NP20 Adapter: 1 ID: 0

Режим чтения : Достоверность
Использование точного потока : Да
Отключение кэша аудио : Да
Использование указателей C2 : Нет

Коррекция смещения при чтении : 102
Способность читать области Lead-in и Lead-out : Нет
Заполнение пропущенных сэмплов тишиной : Да
Удаление блоков с тишиной в начале и конце : Нет
При вычислениях CRC использовались нулевые сэмплы : Да
Интерфейс : Встроенный Win32-интерфейс для Win NT/2000

Выходной формат : Пользовательский кодировщик
Выбранный битрейт : 896 kBit/s
Качество : Высокий
Добавление ID3-тега : Да
Утилита сжатия : C:\Program Files\FLAC\FLAC frontend.exe
Дополнительные параметры : -V -8 -T "Date=%year%" -T "Genre=%genre%" %source%

TOC извлечённого CD

Трек | Старт | Длительность | Начальный сектор | Конечный сектор
---------------------------------------------------------------------
1 | 0:00.00 | 5:30.17 | 0 | 24766
2 | 5:30.17 | 3:49.49 | 24767 | 41990
3 | 9:19.66 | 5:37.31 | 41991 | 67296
4 | 14:57.22 | 4:31.56 | 67297 | 87677
5 | 19:29.03 | 4:41.55 | 87678 | 108807
6 | 24:10.58 | 4:03.67 | 108808 | 127099
7 | 28:14.50 | 3:40.52 | 127100 | 143651
8 | 31:55.27 | 7:06.19 | 143652 | 175620

Характеристики диапазона извлечения и сообщения об ошибках

Выбранный диапазон

Имя файла F:\ВСЕ ЗАГРУЗКИ\sking\Hell-On - Once Upon A Chaos (2015)\Hell-on - Once Upon a Chaos....wav

Пиковый уровень 89.4 %
Скорость извлечения 2.3 X
Качество диапазона 99.9 %
CRC теста 7A4BE328
CRC копии 7A4BE328
Копирование... OK

Ошибок не произошло

AccurateRip: сводка

Трек 1 отсутствует в базе данных
Трек 2 отсутствует в базе данных
Трек 3 отсутствует в базе данных
Трек 4 отсутствует в базе данных
Трек 5 отсутствует в базе данных
Трек 6 отсутствует в базе данных
Трек 7 отсутствует в базе данных
Трек 8 отсутствует в базе данных

Ни одного трека нет в базе AccurateRip

Конец отчёта

---- CUETools DB Plugin V2.1.6

[CTDB TOCID: XOWzTWXHmRt5WKBcwJ3_mFNChOo-] found
Submit result: XOWzTWXHmRt5WKBcwJ3_mFNChOo- has been confirmed
Track | CTDB Status
1 | (1/1) Accurately ripped
2 | (1/1) Accurately ripped
3 | (1/1) Accurately ripped
4 | (1/1) Accurately ripped
5 | (1/1) Accurately ripped
6 | (1/1) Accurately ripped
7 | (1/1) Accurately ripped
8 | (1/1) Accurately ripped

==== Контрольная сумма отчёта 474C99B92603BBF464ACBC62F3390579263C4588E1634436F6C0EB8760351AF4 ====


Якщо Ви справді бажаєте підтримати українське - після прослуховування, якщо музика вам сподобалась, придбайте ліцензійний диск. Підтримаймо вітчизняних виконавців!


Срібний реліз (на рейтинг впливає 50% завантаженого)
 Трекер:    Зареєстрований   

Завантажити / скачати українську музику



відео для новачків



 Зареєстрований:   2016-01-18 21:20
 Розмір:   295 MB 
 Оцінка музики:   5.5/10 (Голосів: 4)
   
Ваш часовий пояс: GMT + 2 Години

Нова тема   Відповісти