Завантажити та скачати торренти українською


Страшилки / Goosebumps (2015) 1080 3D Ukr/Eng | Sub Ukr/Eng [Half OverUnder]

Нові коментарі

Нова тема   Відповісти
Автор Повідомлення
-VipeR- 
VIP


З нами з: 17.07.08
Востаннє: 09.12.16
Повідомлень: 274

2016-01-18 14:18  
Страшилки / Goosebumps (2015) 1080 3D Ukr/Eng | Sub Ukr/Eng [Half OverUnder]

Страшилки / Goosebumps (2015) 1080 3D Ukr/Eng | Sub Ukr/Eng [Half OverUnder]


Жанр: жахи, фентезі, бойовик, комедія, пригоди
Країна: США



Кінокомпанія: Columbia Pictures, Sony Pictures Animation, Village Roadshow Pictures, Original Film, LStar Capital, Scholastic Entertainment)
Режисер: Роб Леттерман
Актори: Кен Маріно, Джек Блек, Одейя Раш, Холстон Сейдж, Еммі Райан, Ділан Міннетт

Сюжет:
Сім'я Зака (Ділан Міннетт) переїжджає в новий будинок в невеликому містечку. Радує Зака одне – знайомство з чарівною сусідкою Ханною (Одейя Раш). З першої зустрічі було зрозуміло, що її батько дивакуватий. Але Зак навіть уявити собі не міг чим викликана така поведінка. Батько Ханни РЛ Стайн (Джек Блек) пише дитячі книги, здебільшого трилери і жахи. І неодмінно в кожній книзі зустрічається якийсь монстр. Так от, ці монстри – не вигадані істоти. Вони являються письменнику і дошкуляють йому, поки не потраплять на сторінки його чергової повісті. Це був дуже ефективний спосіб боротьби з монстрами – писати про них і закривати книги на замок. Поки Зак зі своїм другом випадково не випустили всіх цих чудовиськ на свободу.


Тривалість: 01:43:18
Якість: 1080 3D Half OverUnder [Ash61]
Відео:
кодек:
розмір кадру: 1920 х 1080
бітрейт: 8690 кбіт/с

Аудіо # 1:
мова: українська
переклад: професійний дубльований
кодек: 5.1
бітрейт: 448 кб/с

Аудіо # 2:
мова: англійська
переклад: оригінал
кодек: 5.1
бітрейт: 1536 кб/с

Субтитри # 1-2:
мова: українська (форсовані, повні)
тип: програмні (м'які)
формат: *.srt

Субтитри # 3-4:
мова: англійська (форсовані, повні)
тип: програмні (м'які)
формат: *.srt
MediaInfo
Код:
General
Unique ID                      : 249042356575655055005511510747924257372 (0xBB5BD02D8BDBE35AA5210416CD25DA5C)
Complete name                  : D:\3D\Художні\Goosebumps (2015) 1080p 3D [HalfOverUnder] [UKR ENG] [Hurtom].mkv
Format                         : Matroska
Format version                 : Version 4 / Version 2
File size                      : 7.83 GiB
Duration                       : 1h 43mn
Overall bit rate               : 10.8 Mbps
Movie name                     : Страшилки / Goosebumps (2015) в 3Д
Encoded date                   : UTC 2016-04-02 10:26:32
Writing application            : mkvmerge v8.8.0 ('Wind at my back') 64bit
Writing library                : libebml v1.3.3 + libmatroska v1.4.4

Video
ID                             : 1
Format                         : AVC
Format/Info                    : Advanced Video Codec
Format profile                 : [email protected]
Format settings, CABAC         : Yes
Format settings, ReFrames      : 4 frames
Codec ID                       : V_MPEG4/ISO/AVC
Duration                       : 1h 43mn
Bit rate                       : 8 890 Kbps
Width                          : 1 920 pixels
Height                         : 1 080 pixels
Display aspect ratio           : 16:9
Frame rate mode                : Constant
Frame rate                     : 23.976 (24000/1001) fps
Color space                    : YUV
Chroma subsampling             : 4:2:0
Bit depth                      : 8 bits
Scan type                      : Progressive
Bits/(Pixel*Frame)             : 0.179
Stream size                    : 6.41 GiB (82%)
Title                          : by Ash61
Writing library                : core 146 r2538 121396c
Encoding settings              : cabac=1 / ref=4 / deblock=1:-3:-3 / analyse=0x3:0x113 / me=umh / subme=10 / psy=1 / psy_rd=1.00:0.00 / mixed_ref=1 / me_range=32 / chroma_me=1 / trellis=2 / 8x8dct=1 / cqm=0 / deadzone=21,11 / fast_pskip=1 / chroma_qp_offset=-2 / threads=12 / lookahead_threads=3 / sliced_threads=0 / nr=0 / decimate=1 / interlaced=0 / bluray_compat=0 / constrained_intra=0 / bframes=10 / b_pyramid=2 / b_adapt=2 / b_bias=0 / direct=3 / weightb=1 / open_gop=0 / weightp=2 / keyint=250 / keyint_min=23 / scenecut=40 / intra_refresh=0 / rc_lookahead=60 / rc=crf / mbtree=1 / crf=16.5 / qcomp=0.70 / qpmin=0 / qpmax=69 / qpstep=4 / vbv_maxrate=40000 / vbv_bufsize=30000 / crf_max=0.0 / nal_hrd=none / filler=0 / frame-packing=4 / ip_ratio=1.40 / aq=1:0.70
Language                       : English
Default                        : Yes
Forced                         : No

Audio #1
ID                             : 2
Format                         : AC-3
Format/Info                    : Audio Coding 3
Mode extension                 : CM (complete main)
Format settings, Endianness    : Big
Codec ID                       : A_AC3
Duration                       : 1h 43mn
Bit rate mode                  : Constant
Bit rate                       : 448 Kbps
Channel(s)                     : 6 channels
Channel positions              : Front: L C R, Side: L R, LFE
Sampling rate                  : 48.0 KHz
Frame rate                     : 31.250 fps (1536 spf)
Compression mode               : Lossy
Stream size                    : 331 MiB (4%)
Title                          : 5.1 @ 448 kbps -  Blu-ray CEE
Language                       : Ukrainian
Default                        : Yes
Forced                         : Yes

Audio #2
ID                             : 3
Format                         :
Format/Info                    : Digital Theater Systems
Mode                           : 16
Format settings, Endianness    : Big
Codec ID                       : A_DTS
Duration                       : 1h 43mn
Bit rate mode                  : Constant
Bit rate                       : 1 509 Kbps
Channel(s)                     : 6 channels
Channel positions              : Front: L C R, Side: L R, LFE
Sampling rate                  : 48.0 KHz
Frame rate                     : 93.750 fps (512 spf)
Bit depth                      : 16 bits
Compression mode               : Lossy
Stream size                    : 1.09 GiB (14%)
Title                          : 5.1 @ 1536 kbps
Language                       : English
Default                        : No
Forced                         : No

Text #1
ID                             : 4
Format                         : UTF-8
Codec ID                       : S_TEXT/UTF8
Codec ID/Info                  : UTF-8 Plain Text
Duration                       : 1h 33mn
Bit rate                       : 1 bps
Count of elements              : 20
Stream size                    : 778 Bytes (0%)
Title                          : Forced
Language                       : Ukrainian
Default                        : Yes
Forced                         : Yes

Text #2
ID                             : 5
Format                         : UTF-8
Codec ID                       : S_TEXT/UTF8
Codec ID/Info                  : UTF-8 Plain Text
Duration                       : 1h 34mn
Bit rate                       : 90 bps
Count of elements              : 1221
Stream size                    : 62.3 KiB (0%)
Title                          : Full
Language                       : Ukrainian
Default                        : No
Forced                         : No

Text #3
ID                             : 6
Format                         : UTF-8
Codec ID                       : S_TEXT/UTF8
Codec ID/Info                  : UTF-8 Plain Text
Duration                       : 1h 33mn
Bit rate                       : 58 bps
Count of elements              : 1198
Stream size                    : 40.0 KiB (0%)
Title                          : Full
Language                       : English
Default                        : No
Forced                         : No

Menu #1
00:00:00.000                   : en:00:00:00.000
00:08:09.698                   : en:00:08:09.698
00:11:45.955                   : en:00:11:45.955
00:17:54.031                   : en:00:17:54.031
00:21:52.853                   : en:00:21:52.853
00:27:57.843                   : en:00:27:57.843
00:32:40.292                   : en:00:32:40.292
00:38:29.849                   : en:00:38:29.849
00:44:37.008                   : en:00:44:37.008
00:52:01.452                   : en:00:52:01.452
00:58:12.948                   : en:00:58:12.948
01:03:40.608                   : en:01:03:40.608
01:09:56.317                   : en:01:09:56.317
01:16:40.763                   : en:01:16:40.763
01:22:55.220                   : en:01:22:55.220
01:31:13.093                   : en:01:31:13.093

Menu #2
00:00:00.000                   : :1
00:08:09.697                   : :2
00:11:45.955                   : :3
00:17:54.029                   : :4
00:17:54.030                   : :5
00:21:52.853                   : :6
00:27:57.842                   : :7
00:32:40.289                   : :8
00:32:40.290                   : :9
00:38:29.849                   : :10
00:44:37.007                   : :11
00:52:01.451                   : :12
00:58:12.947                   : :13
01:03:40.608                   : :14
01:09:56.317                   : :15
01:16:40.761                   : :16 / :17
01:22:55.220                   : :18
01:31:13.091                   : :19 / :20
Скріншоти
Джерело: &
Особиста оцінка: 8 - мені сподобалося


 Трекер:    Зареєстрований   

Завантажити / скачати фільм українською



відео для новачків



 Зареєстрований:   2016-04-02 13:46
 Розмір:   7.83 GB 
 Оцінка фільму:   6.4/10 (Голосів: 11)
   
Інші релізи
   Страшилки / Goosebumps (2015) AngryBirdsUA  24 / 0   1.46 GB   2016-03-17 21:51 
   Страшилки / Goosebumps (2015) 1080p Ukr/Eng | Sub Ukr/Eng 11FrYkT  4 / 0   10.57 GB   2016-03-17 19:38 
   Страшилки / Goosebumps (2015) 720p Ukr/Eng | Sub Ukr/Eng 11FrYkT  6 / 0   4.46 GB   2016-03-17 19:28 
-VipeR- 
VIP


З нами з: 17.07.08
Востаннє: 09.12.16
Повідомлень: 274

2016-04-02 13:50  
Реліз оновлено!

Замінено українську доріжку на 448 кб/c, англійську на 1536 кб/c
видалено російські субтитри

Ваш часовий пояс: GMT + 2 Години

Нова тема   Відповісти