Завантажити та скачати торренти українською


Zgard - Contemplation (2014) [FLAC] | Atmospheric / Black Metal

Нові коментарі

Нова тема   Відповісти
Автор Повідомлення
kolpavel 
VIP


З нами з: 04.05.14
Востаннє: 04.12.16
Повідомлень: 1060

2016-01-17 17:42  
Zgard - Contemplation (2014) [FLAC] | Atmospheric / Black Metal

Zgard - Contemplation (2014) [FLAC] | Atmospheric / Black Metal


Стиль: Atmospheric Black Metal
Країна, місто: Україна, Львів
Сайти: Офіційний сайт
Видавець: Svarga Music (номер за каталогом SVG07)
Виконавці:
Yaromisl - вокал, гітара, клавішні, сопілка, варган, текст.
Пісні:
    1. Highlands [Високогір'я]
    2. Underworld Bells [Дзвін потойбіччя]
    3. Contemplation [Созерцание]
    4. Wedge of Cranes [Журавлиний клин]
    5. Silence [Забуття]
    6. Incarnation Memory [Спогади перевтілень]
    7. Through the Forest [Через ліс]

Тривалість: 01:02:15
Мова: українська(1,2,4-7), російська(3).
Аудіо-кодек: FLAC
Бітрейт: 943 кб/с
Джерело: трекер
Додаткова інформація:
На четвертому альбомі Яромисл продовжує концепцію попередніх робіт, занурюючи нас у величну і таємничу атмосферу Карпат. Музична палітра рясніє буйством атмосферних і фольклорних фарб, переплітаючись з гранітною міццю гітарних партій. Zgard ввібрав в себе велич лісів, гір і річок, що покриваються імлою і туманним серпанком Карпат!
Лог:
Exact Audio Copy V1.0 beta 3 from 29. August 2011

Отчёт EAC об извлечении, выполненном 13. октября 2014, 11:28

Zgard / Contemplation

Дисковод: Optiarc DVD RW AD-7283S Adapter: 1 ID: 1

Режим чтения : Достоверность
Использование точного потока : Да
Отключение кэша аудио : Да
Использование указателей C2 : Нет

Коррекция смещения при чтении : 48
Способность читать области Lead-in и Lead-out : Нет
Заполнение пропущенных сэмплов тишиной : Да
Удаление блоков с тишиной в начале и конце : Нет
При вычислениях CRC использовались нулевые сэмплы : Да
Интерфейс : Встроенный Win32-интерфейс для Win NT/2000

Выходной формат : Пользовательский кодировщик
Выбранный битрейт : 1024 kBit/s
Качество : Высокий
Добавление ID3-тега : Нет
Утилита сжатия : C:\Program Files (x86)\Exact Audio Copy\Flac\flac.exe
Дополнительные параметры : -V -8 -T "Date=%year%" -T "Genre=%genre%" %source%

TOC извлечённого CD

Трек | Старт | Длительность | Начальный сектор | Конечный сектор
---------------------------------------------------------------------
1 | 0:00.00 | 9:58.45 | 0 | 44894
2 | 9:58.45 | 10:54.40 | 44895 | 93984
3 | 20:53.10 | 9:34.20 | 93985 | 137054
4 | 30:27.30 | 8:47.46 | 137055 | 176625
5 | 39:15.01 | 5:47.19 | 176626 | 202669
6 | 45:02.20 | 9:10.51 | 202670 | 243970
7 | 54:12.71 | 8:06.00 | 243971 | 280420

Характеристики диапазона извлечения и сообщения об ошибках

Выбранный диапазон

Имя файла D:\Yourson\-Morgul-\Zgard\2014 - Contemplation\Zgard - Contemplation.wav

Пиковый уровень 100.0 %
Скорость извлечения 4.3 X
Качество диапазона 99.9 %
CRC теста 49D0CB6A
CRC копии 49D0CB6A
Копирование... OK

Ошибок не произошло

AccurateRip: сводка

Трек 1 отсутствует в базе данных
Трек 2 отсутствует в базе данных
Трек 3 отсутствует в базе данных
Трек 4 отсутствует в базе данных
Трек 5 отсутствует в базе данных
Трек 6 отсутствует в базе данных
Трек 7 отсутствует в базе данных

Ни одного трека нет в базе AccurateRip

Конец отчёта

==== Контрольная сумма отчёта 6F70BCD81E0B515D40135472DCB8EDCF7A6ED49525BF5C9B74AF6663A95389A3 ====


Якщо Ви справді бажаєте підтримати українське - після прослуховування, якщо музика вам сподобалась, придбайте ліцензійний диск. Підтримаймо вітчизняних виконавців!


Срібний реліз (на рейтинг впливає 50% завантаженого)
 Трекер:    Зареєстрований   

Завантажити / скачати українську музику



відео для новачків



 Зареєстрований:   2016-01-17 17:42
 Розмір:   500 MB 
 Оцінка музики:   7.6/10 (Голосів: 5)
   
Ваш часовий пояс: GMT + 2 Години

Нова тема   Відповісти