Завантажити та скачати торренти українською


Сапфірова книга / Saphirblau (2014) 720p Ukr/Ger

Нові коментарі

Нова тема   Відповісти
Автор Повідомлення
garvasyuk 
Новенький


З нами з: 11.03.10
Востаннє: 09.12.16
Повідомлень: 5

2016-01-13 13:10  
Сапфірова книга / Saphirblau (2014) 720p Ukr/Ger

Сапфірова книга / Saphirblau (2014) 720p Ukr/Ger


Жанр: драма, фентезі, містика
Країна: Німеччина



Кінокомпанія: Tele München Fernseh Produktionsgesellschaft (TMG), mem-film, Lieblingsfilm
Режисери: Фелікс Фуксштайнер, Катаріна Шеде
Актори: Марія Еріх, Янніс Нівьонер, Петер Сімонішек, Йозефіна Пройсс, Флоріан Бартоломай, Руфус Бек, Лаура Берлін, Сандра Борґманн, Юстина дель Корте, Вероніка Ферре

Сюжет:
Ґвен тільки що виявила, що вона останній член таємної подорожі в часі Кола Дванадцяти. Тепер вона має жонглювати постійними поїздками в минулому, її відносинами з Гідеоном і з'ясуванням темних таємниць, які оточують Коло.


Тривалість: 01:56:06
Якість:
Відео:
кодек:
розмір кадру: 1280 х 544
бітрейт: 4 835 кб/с

Аудіо # 1:
мова: українська
переклад: багатоголосий закадровий
кодек: 2.0
бітрейт: 192 кб/с

Аудіо # 2:
мова: німецька
переклад: оригінал
кодек: 5.1
бітрейт: 1509 кб/с
MediaInfo
General
Unique ID : 173104920312027129709198424430428938285 (0x823ACB822B3DA4C9AE85E53C5C0DE02D)
Complete name : D:\Films\Tajmless.2.2014..720p...Ukr.Ger.MVO.Novyi.kanal.mkv
Format : Matroska
Format version : Version 4 / Version 2
File size : 5.30 GiB
Duration : 1h 56mn
Overall bit rate : 6 539 Kbps
Movie name : Таймлесс 2_Сапфировая книга. (Tonik)
Encoded date : UTC 2016-01-14 15:24:09
Writing application : mkvmerge v8.2.0 ('World of Adventure') 64bit
Writing library : libebml v1.3.1 + libmatroska v1.4.2

Video
ID : 1
Format : AVC
Format/Info : Advanced Video Codec
Format profile : [email protected]
Format settings, CABAC : Yes
Format settings, ReFrames : 12 frames
Codec ID : V_MPEG4/ISO/AVC
Duration : 1h 56mn
Bit rate : 4 835 Kbps
Width : 1 280 pixels
Height : 544 pixels
Display aspect ratio : 2.35:1
Frame rate mode : Constant
Frame rate : 24.000 fps
Color space : YUV
Chroma subsampling : 4:2:0
Bit depth : 8 bits
Scan type : Progressive
Bits/(Pixel*Frame) : 0.289
Stream size : 3.92 GiB (74%)
Writing library : core 144 r2525 40bb568
Encoding settings : cabac=1 / ref=12 / deblock=1:-3:-3 / analyse=0x3:0x133 / me=umh / subme=11 / psy=1 / psy_rd=1.00:0.00 / mixed_ref=1 / me_range=32 / chroma_me=1 / trellis=2 / 8x8dct=1 / cqm=0 / deadzone=21,11 / fast_pskip=0 / chroma_qp_offset=-2 / threads=12 / lookahead_threads=3 / sliced_threads=0 / nr=0 / decimate=1 / interlaced=0 / bluray_compat=0 / constrained_intra=0 / bframes=11 / b_pyramid=2 / b_adapt=2 / b_bias=0 / direct=1 / weightb=1 / open_gop=0 / weightp=2 / keyint=250 / keyint_min=24 / scenecut=40 / intra_refresh=0 / rc=crf / mbtree=0 / crf=15.8 / qcomp=0.60 / qpmin=0 / qpmax=69 / qpstep=4 / ip_ratio=1.40 / pb_ratio=1.30 / aq=1:1.00
Language : German
Default : Yes
Forced : No

Audio #1
ID : 2
Format : AC-3
Format/Info : Audio Coding 3
Mode extension : CM (complete main)
Format settings, Endianness : Big
Codec ID : A_AC3
Duration : 1h 56mn
Bit rate mode : Constant
Bit rate : 192 Kbps
Channel(s) : 2 channels
Channel positions : Front: L R
Sampling rate : 48.0 KHz
Frame rate : 31.250 fps (1536 spf)
Compression mode : Lossy
Stream size : 159 MiB (3%)
Title : MVO, Новий канал
Language : Ukrainian
Default : Yes
Forced : No

Audio #2
ID : 3
Format :
Format/Info : Digital Theater Systems
Mode : 16
Format settings, Endianness : Big
Codec ID : A_DTS
Duration : 1h 56mn
Bit rate mode : Constant
Bit rate : 1 509 Kbps
Channel(s) : 6 channels
Channel positions : Front: L C R, Side: L R, LFE
Sampling rate : 48.0 KHz
Frame rate : 93.750 fps (512 spf)
Bit depth : 16 bits
Compression mode : Lossy
Stream size : 1.22 GiB (23%)
Title : Original
Language : German
Default : No
Forced : No

Menu
00:00:00.000 : en:00:00:00.000
00:11:35.542 : en:00:11:35.542
00:21:12.667 : en:00:21:12.667
00:32:21.417 : en:00:32:21.417
00:42:31.125 : en:00:42:31.125
00:52:59.958 : en:00:52:59.958
01:03:56.750 : en:01:03:56.750
01:11:59.958 : en:01:11:59.958
01:24:29.583 : en:01:24:29.583
01:35:17.333 : en:01:35:17.333
01:45:26.083 : en:01:45:26.083
01:48:29.667 : en:01:48:29.667
Скріншоти

Джерело:
Особиста оцінка: 0 - не дивився
    

     Трекер:    Зареєстрований   

    Завантажити / скачати фільм українською



    відео для новачків



     Зареєстрований:   2016-01-14 18:07
     Розмір:   5.3 GB 
     Оцінка фільму:   7.7/10 (Голосів: 6)
       
    Інші релізи
       Сапфірова книга / Saphirblau (2014) Gelios  9 / 0   1.45 GB   2015-05-09 14:18 
    Ua.bos_01 
    VIP


    З нами з: 22.06.15
    Востаннє: 06.12.16
    Повідомлень: 1291

    2016-01-20 14:32  
    Драматична казка хіба що для родинного перегляду. Нічого особливого з фільму не взяв. Гра акторів не дуже сподобалась, не щиро вони своїй ролі віддаються, а це вже 80% успіху. Мені фільм не сподобався.
    Ваш часовий пояс: GMT + 2 Години

    Нова тема   Відповісти