Завантажити та скачати торренти українською


Тартак - Ввічність (2015) [FLAC] | Alternative Rock

Нові коментарі

Нова тема   Відповісти
Автор Повідомлення
vamp69 
Поважний учасник


З нами з: 06.07.09
Востаннє: 30.11.16
Повідомлень: 173

2016-01-12 23:47  
Тартак - Ввічність (2015) [FLAC] | Alternative Rock

Тартак - Ввічність (2015) [FLAC] | Alternative Rock


Стиль: Alternative Rock Hip-Hop
Країна, місто: Україна, Луцьк
Сайти: Офіційний сайт
Видавець: BOG DA NOVA MUZYKA. Lavina music
Виконавці:
Станіслав Шапаренко (барабани)
Діма Чуєв (бас-гітара)
Антон Єгоров (гітара)
Андрій Благун (клавішні, бек-вокали)
Сашко Положинський (голос)
Пісні:
    01. Як би хотілося (04:43)
    02. Зміст (03:23)
    03. Шановні бандити (03:51)
    04. Десь там (02:57)
    05. Перший крок (02:38)
    06. Люта зима (04:09)
    07. Голос крові (04:11)
    08. Почуй мене (04:11)
    09. Косар (04:26)
    10. Дрг і врг (03:58)
    11. Кілька хороших хлопців (04:16)
    12. Усе що є (03:09)
    13. Висота / Ніхто крім нас (03:28)
    14. Мене вже немає (03:36)
    15. Жити (04:12)

Тривалість: 00:57:26
Мова: українська
Аудіо-кодек: FLAC
Бітрейт: 1024 кб/с
Джерело: мій CD
log
Exact Audio Copy V1.0 beta 3 from 29. August 2011

EAC extraction logfile from 10. January 2016, 20:40

Тартак / Ввічність

Used drive : ATAPI iHAS124 B Adapter: 4 ID: 0

Read mode : Secure
Utilize accurate stream : Yes
Defeat audio cache : Yes
Make use of C2 pointers : No

Read offset correction : 6
Overread into Lead-In and Lead-Out : No
Fill up missing offset samples with silence : Yes
Delete leading and trailing silent blocks : No
Null samples used in CRC calculations : Yes
Used interface : Native Win32 interface for Win NT & 2000

Used output format : Internal WAV Routines
Sample format : 44.100 Hz; 16 Bit; Stereo

TOC of the extracted CD

Track | Start | Length | Start sector | End sector
---------------------------------------------------------
1 | 0:00.00 | 4:44.46 | 0 | 21345
2 | 4:44.46 | 3:24.20 | 21346 | 36665
3 | 8:08.66 | 3:52.54 | 36666 | 54119
4 | 12:01.45 | 2:58.44 | 54120 | 67513
5 | 15:00.14 | 2:39.73 | 67514 | 79511
6 | 17:40.12 | 4:11.04 | 79512 | 98340
7 | 21:51.16 | 4:12.35 | 98341 | 117275
8 | 26:03.51 | 4:13.08 | 117276 | 136258
9 | 30:16.59 | 4:27.46 | 136259 | 156329
10 | 34:44.30 | 3:59.72 | 156330 | 174326
11 | 38:44.27 | 4:17.18 | 174327 | 193619
12 | 43:01.45 | 3:10.47 | 193620 | 207916
13 | 46:12.17 | 3:30.03 | 207917 | 223669
14 | 49:42.20 | 3:38.13 | 223670 | 240032
15 | 53:20.33 | 4:12.04 | 240033 | 258936

Range status and errors

Selected range

Filename I:\Українська музика\Тартак (2015) Ввічність [FLAC]\Тартак - 2015 - Ввічність.wav

Peak level 100.0 %
Extraction speed 1.9 X
Range quality 99.9 %
Test CRC E30A1DE9
Copy CRC E30A1DE9
Copy OK

No errors occurred

AccurateRip summary

Track 1 not present in database
Track 2 not present in database
Track 3 not present in database
Track 4 not present in database
Track 5 not present in database
Track 6 not present in database
Track 7 not present in database
Track 8 not present in database
Track 9 not present in database
Track 10 not present in database
Track 11 not present in database
Track 12 not present in database
Track 13 not present in database
Track 14 not present in database
Track 15 not present in database

None of the tracks are present in the AccurateRip database

End of status report

==== Log checksum A6C77F62E75A9FA53A36677E0A2F5D4BBF18D46B2C3652258074E6F7F6596328 ====
Якщо Ви справді бажаєте підтримати українське - після прослуховування, якщо музика вам сподобалась, придбайте ліцензійний диск. Підтримаймо вітчизняних виконавців!


Срібний реліз (на рейтинг впливає 50% завантаженого)
 Трекер:    Зареєстрований   

Завантажити / скачати українську музику



відео для новачків



 Зареєстрований:   2016-01-12 23:47
 Розмір:   429 MB 
 Оцінка музики:   9.4/10 (Голосів: 16)
   
kurmunke 
Свій


З нами з: 06.11.13
Востаннє: 05.12.16
Повідомлень: 60

2016-01-13 16:25  
Цитата:
Тартак - Ввічність (2015) [FLAC] | Alternative Rock
Толока » Музика » Українська музика (lossless) » Поп, Естрада

bot 
робот


З нами з: 30.09.07
Востаннє: 26.05.05
Повідомлень: 15998

2016-01-13 18:07  
Тему перенесено з Поп, Естрада до форуму Рок, Метал, Альтернатива, Панк, СКА


ssTAss

Ваш часовий пояс: GMT + 2 Години

Нова тема   Відповісти