Завантажити та скачати торренти українською


Марсіянин / The Martian (2015) 720p-mini

Нові коментарі

Нова тема   Відповісти
Автор Повідомлення
Drool 
VIP


З нами з: 17.04.10
Востаннє: 03.12.16
Повідомлень: 1262

2016-01-12 23:01  
Марсіянин / The Martian (2015) 720p-mini

Жанр: пригодницький, комедія, драма, фантастика
Країна: США, Велика Британія



Кінокомпанія: Twentieth Century Fox Film Corporation, TSG Entertainment, Scott Free Productions
Режисер: Рідлі Скотт
Актори: Метт Деймон, Джесіка Честейн, Крістен Віґ, Джеф Деніелс, Майкл Пенья, Шон Бін, Кейт Мара, Себастьян Стен, Чіветел Еджіофор, Маккензі Девіс, Дональд Ґловер та інші

Сюжет:
Марк Вотні - один з членів експедиції "Арес-3" на Марс. Щоб уникнути загибелі людей під час лютої бурі, було прийнято рішення всю місію евакуювати. Однак не всі встигли вчасно покинути червону планету. На Землі прийшли до висновку, що Марк Вотні трагічно загинув під час сильної бурі, хоча насправді він живий. У нього найважча місія в історії людства: вижити на чужій планеті одному, з обмеженою кількістю продуктів і без можливості зв'язатися з домом. До наступної місії на Марс потрібно чекати як мінімум чотири роки. Марку доведеться використовувати всю свою кмітливість і навички, щоб не тільки повідомити про те, що він не помер, але і постаратися зберегти своє життя...


Тривалість: 02:21:37
Якість: 720p-mini
Відео:
кодек:
розмір кадру: 1280x528
бітрейт: 2205 кб/с

Аудіо:
мова: українська
переклад: професійний дубльований
кодек: 5.1
бітрейт: 448 кб/с

Субтитри:
мова: українська
тип: програмні (м'які, форсовані) окремим файлом
формат: *.srt
MediaInfo
General
Unique ID : 121721718618106578925313759303299443863 (0x5B92C012256CAC5B1EE27C773DB72C97)
Complete name : /mnt/disk_d/Video/The.Martian.2015.Ukr.Dub..720p-mini.mkv
Format : Matroska
Format version : Version 4 / Version 2
File size : 2.63 GiB
Duration : 2h 21mn
Overall bit rate mode : Variable
Overall bit rate : 2 654 Kbps
Movie name : Марсіянин / The Martian (2015) 720p-mini | video by KiNGDOM
Encoded date : UTC 2016-01-12 14:59:49
Writing application : mkvmerge v8.5.0 ('Vanishing Act') 64bit
Writing library : libebml v1.3.1 + libmatroska v1.4.2
DURATION : 02:21:37.568000000
NUMBER_OF_FRAMES : 265549
NUMBER_OF_BYTES : 475863808
_STATISTICS_WRITING_APP : mkvmerge v8.5.0 ('Vanishing Act') 64bit
_STATISTICS_WRITING_DATE_UTC : 2016-01-12 14:59:49
_STATISTICS_TAGS : BPS DURATION NUMBER_OF_FRAMES NUMBER_OF_BYTES

Video
ID : 1
Format : AVC
Format/Info : Advanced Video Codec
Format profile : [email protected]
Format settings, CABAC : Yes
Format settings, ReFrames : 3 frames
Codec ID : V_MPEG4/ISO/AVC
Duration : 2h 21mn
Bit rate mode : Variable
Bit rate : 2 205 Kbps
Maximum bit rate : 40.0 Mbps
Width : 1 280 pixels
Height : 528 pixels
Display aspect ratio : 2.40:1
Frame rate mode : Constant
Frame rate : 23.976 fps
Color space : YUV
Chroma subsampling : 4:2:0
Bit depth : 8 bits
Scan type : Progressive
Bits/(Pixel*Frame) : 0.136
Stream size : 2.13 GiB (81%)
Title : Марсіянин / The Martian (2015) 720p-mini
Writing library : core 148 r2638 7599210
Encoding settings : cabac=1 / ref=4 / deblock=1:0:0 / analyse=0x3:0x113 / me=umh / subme=9 / psy=1 / psy_rd=1.00:0.00 / mixed_ref=1 / me_range=16 / chroma_me=1 / trellis=2 / 8x8dct=1 / cqm=0 / deadzone=21,11 / fast_pskip=1 / chroma_qp_offset=-2 / threads=6 / lookahead_threads=1 / sliced_threads=0 / slices=4 / nr=0 / decimate=1 / interlaced=0 / bluray_compat=0 / constrained_intra=0 / bframes=3 / b_pyramid=1 / b_adapt=2 / b_bias=0 / direct=1 / weightb=1 / open_gop=0 / weightp=0 / keyint=23 / keyint_min=1 / scenecut=40 / intra_refresh=0 / rc_lookahead=23 / rc=2pass / mbtree=1 / bitrate=2205 / ratetol=1.0 / qcomp=0.60 / qpmin=10 / qpmax=51 / qpstep=4 / cplxblur=20.0 / qblur=0.5 / vbv_maxrate=40000 / vbv_bufsize=30000 / nal_hrd=vbr / filler=0 / ip_ratio=1.40 / aq=1:1.00
Default : Yes
Forced : Yes

Audio
ID : 2
Format : AC-3
Format/Info : Audio Coding 3
Mode extension : CM (complete main)
Format settings, Endianness : Big
Codec ID : A_AC3
Duration : 2h 21mn
Bit rate mode : Constant
Bit rate : 448 Kbps
Channel(s) : 6 channels
Channel positions : Front: L C R, Side: L R, LFE
Sampling rate : 48.0 KHz
Compression mode : Lossy
Stream size : 454 MiB (17%)
Title : Рідна мова ( 5.1 448 kbps)
Language : Ukrainian
Default : Yes
Forced : Yes
Скріншоти




Джерело відеоряду: RG KiNGDOM
Особиста оцінка: 10 - без зайвих вагань рекомендую всім!


 Трекер:    Зареєстрований   

Завантажити / скачати фільм українською



відео для новачків



 Зареєстрований:   2016-01-12 23:01
 Розмір:   2.63 GB 
 Оцінка фільму:   9.3/10 (Голосів: 33)
   
Інші релізи
   Марсіянин / The Martian (2015) 720p-mini (60 fps) Drool  9 / 0   5.54 GB   2016-01-19 13:49 
   Марсіянин / The Martian (2015) AVC Ukr/Eng | Sub Ukr/Eng BASTERD-94  34 / 0   2.91 GB   2016-01-13 22:30 
   Марсіянин / The Martian (2015) Remux 1080p Ukr/Eng | Sub Ukr/Eng famous37  4 / 0   32.09 GB   2016-01-13 20:14 
   Марсіянин / The Martian (2015) 1080p Ukr/Eng | Sub Ukr/Eng 11FrYkT  11 / 0   16.09 GB   2016-01-09 23:04 
   Марсіянин / The Martian (2015) 720p Ukr/Eng | Sub Ukr/Eng 11FrYkT  34 / 0   7.09 GB   2016-01-09 22:46 
   Марсіянин / The Martian (2015) Ukr/Eng | Sub Ukr/Eng Gelios  56 / 0   2.18 GB   2016-01-09 22:40 
   Марсіянин / The Martian (2015) 1080p 3D Ukr/Eng | Sub Ukr/Eng [Half SideBySide] -VipeR-  7 / 0   13.13 GB   2016-01-03 17:25 
Nahalist 
Свій


З нами з: 12.12.13
Востаннє: 02.12.16
Повідомлень: 95

2016-01-28 21:35  
Дякую, класне кіно, в останні хвилини фільму дуже переживав за героя, далего не в кожному фільмі так, зазвичай байдуже, бо то ж кіно, а тут прям забув, думав насправді відбувається :-)
Добре, що всі добралися до Землі, це ж треба, нікого режисер не "відправив на той світ" :-)

Толя 
VIP


З нами з: 15.01.09
Востаннє: 03.12.16
Повідомлень: 394

2016-01-31 15:28  
Кіно вийшло аж занадто спрощене. 7/10

Додано через 12 хвилин 48 секунд:

Хоча ні, щойно додивився фільм 4/10.

Ваш часовий пояс: GMT + 2 Години

Нова тема   Відповісти