Завантажити та скачати торренти українською


Карлос: Кіноверсія / Carlos: Movie (2010) 720p Ukr/Multilang

Нові коментарі

Нова тема   Відповісти
Автор Повідомлення
krigg070 
Відео Гуртом - фільмокрай
Відео Гуртом - фільмокрай


З нами з: 29.10.14
Востаннє: 05.12.16
Повідомлень: 350

2016-01-11 19:08  
Карлос: Кіноверсія / Carlos: Movie (2010) 720p Ukr/Multilang


Жанр: біографічний, кримінальний, драма
Країна: Франція | Німеччина



Кінокомпанія: Films en Stock, Egoli Tossell Film
Режисер: Олів'є Ассаяс
Актори: Едгар Рамірес, Олександр Шеєр, Фаді Ебі Самро, Ламія Ахмед та інші

Сюжет:
В основу сюжету фільму покладено історію становлення революціонера-інтернаціоналіста Іліча Раміреса Санчеса, який під ім'ям Карлос Шакал став ключовою постаттю міжнародного тероризму в 1970-80-х роках, здійснюючи теракти в інтересах як «Народного фронту звільнення Палестини», так і японської «Червоної армії».

Творці стрічки попереджають, що оскільки багато деталей життя та діяльності Карлоса залишаються й досі невідомими, ця історія значною мірою є вигадкою.

Дія стрічки починається на початку 1970-х років у Лондоні, де революційно налаштований молодий венесуелець Іліч Рамірес Санчес, що мріє про діяльність на благо пригноблюваних країн «Третього світу», вирішує приєднатися до палестинської групи, що веде підпільну боротьбу проти політики держави Ізраїль на Близькому Сході…


Тривалість: 02:45:16
Якість:
Відео:
кодек:
розмір кадру: 1 280 х 528
бітрейт: 4 165 кб/с

Аудіо # 1:
мова: українська
переклад: багатоголосий закадровий
кодек: 2.0
бітрейт: 192 кб/с

Аудіо # 2:
мова: англійська, німецька, іспанська, французька, арабська
переклад: оригінал
кодек: 5.1
бітрейт: 448 кб/с
Скріншоти
MediaInfo
Код:
General
Unique ID                      : 185596536229747432157950159340565824996 (0x8BA097B937A2ACA7A6E7A7267FC605E4)
Complete name                  : D:\Films\Carlos (2010) (movie) 720p [Ukr, MLang] [Hurtom].mkv
Format                         : Matroska
Format version                 : Version 2
File size                      : 5.55 GiB
Duration                       : 2h 45mn
Overall bit rate               : 4 807 Kbps
Encoded date                   : UTC 2016-01-11 15:14:04
Writing application            : mkvmerge v3.3.0 ('Language') built on Mar 24 2010 14:59:24
Writing library                : libebml v0.8.0 + libmatroska v0.9.0

Video
ID                             : 1
Format                         : AVC
Format/Info                    : Advanced Video Codec
Format profile                 : [email protected]
Format settings, CABAC         : Yes
Format settings, ReFrames      : 5 frames
Codec ID                       : V_MPEG4/ISO/AVC
Duration                       : 2h 45mn
Bit rate                       : 4 165 Kbps
Width                          : 1 280 pixels
Height                         : 528 pixels
Display aspect ratio           : 2.40:1
Frame rate mode                : Constant
Frame rate                     : 23.976 (24000/1001) fps
Original frame rate            : 23.976 (23976/1000) fps
Color space                    : YUV
Chroma subsampling             : 4:2:0
Bit depth                      : 8 bits
Scan type                      : Progressive
Bits/(Pixel*Frame)             : 0.257
Stream size                    : 4.70 GiB (85%)
Writing library                : core 107 r1745 4785e8e
Encoding settings              : cabac=1 / ref=5 / deblock=1:0:0 / analyse=0x3:0x133 / me=umh / subme=7 / psy=1 / psy_rd=1.00:0.00 / mixed_ref=1 / me_range=16 / chroma_me=1 / trellis=1 / 8x8dct=1 / cqm=0 / deadzone=21,11 / fast_pskip=0 / chroma_qp_offset=-2 / threads=12 / sliced_threads=0 / nr=0 / decimate=1 / interlaced=0 / constrained_intra=0 / bframes=3 / b_pyramid=2 / b_adapt=1 / b_bias=0 / direct=1 / weightb=1 / open_gop=0 / weightp=2 / keyint=250 / keyint_min=23 / scenecut=40 / intra_refresh=0 / rc_lookahead=40 / rc=2pass / mbtree=1 / bitrate=4165 / ratetol=1.0 / qcomp=0.60 / qpmin=10 / qpmax=51 / qpstep=4 / cplxblur=20.0 / qblur=0.5 / ip_ratio=1.40 / aq=1:1.00
Language                       : English
Default                        : No
Forced                         : No

Audio #1
ID                             : 2
Format                         : AC-3
Format/Info                    : Audio Coding 3
Mode extension                 : CM (complete main)
Format settings, Endianness    : Big
Codec ID                       : A_AC3
Duration                       : 2h 45mn
Bit rate mode                  : Constant
Bit rate                       : 192 Kbps
Channel(s)                     : 2 channels
Channel positions              : Front: L R
Sampling rate                  : 48.0 KHz
Frame rate                     : 31.250 fps (1536 spf)
Compression mode               : Lossy
Stream size                    : 227 MiB (4%)
Title                          : 2.0 @ 192 kbps [NLO TV]
Language                       : Ukrainian
Default                        : Yes
Forced                         : No

Audio #2
ID                             : 3
Format                         : AC-3
Format/Info                    : Audio Coding 3
Mode extension                 : CM (complete main)
Format settings, Endianness    : Big
Codec ID                       : A_AC3
Duration                       : 2h 45mn
Bit rate mode                  : Constant
Bit rate                       : 448 Kbps
Channel(s)                     : 6 channels
Channel positions              : Front: L C R, Side: L R, LFE
Sampling rate                  : 48.0 KHz
Frame rate                     : 31.250 fps (1536 spf)
Compression mode               : Lossy
Stream size                    : 530 MiB (9%)
Title                          : 5.1 @ 448 kbps [original]
Default                        : No
Forced                         : No

Джерело:
Особиста оцінка: 0 - не дивився


 Трекер:    Зареєстрований   

Завантажити / скачати фільм українською



відео для новачків



 Зареєстрований:   2016-01-11 19:08
 Розмір:   5.55 GB 
 Оцінка фільму:   9/10 (Голосів: 6)
   
Ua.bos_01 
VIP


З нами з: 22.06.15
Востаннє: 06.12.16
Повідомлень: 1291

2016-01-26 19:59  
Доволі цікава екранізація історії Іліча Раміреса Санчеса. Цікава, та в дечому навіть повчальна. Загалом є що дивитись. Раджу до перегляду.
007nazar 
Новенький


З нами з: 25.06.12
Востаннє: 27.11.16
Повідомлень: 2

2016-08-27 17:31  
За посиланням на IMDB вказано що це міні-серіал, який складається з трьох епізодів (сумарною тривалістю більше 5 годин). Тут же вказано що це фільм, тривалість якого 2:45:16. Не можу зрозуміти чому так.
Ваш часовий пояс: GMT + 2 Години

Нова тема   Відповісти