Завантажити та скачати торренти українською


Паранормальне явище: Примарний світ 3D / Paranormal Activity: The Ghost Dimension (2015) 1080 3D Ukr/Eng [HalfOverUnder]

Нові коментарі

Нова тема   Відповісти
Останній раз роздавалося bigriding1 (2016-12-09)
Автор Повідомлення
-VipeR- 
VIP


З нами з: 17.07.08
Востаннє: 09.12.16
Повідомлень: 274

2016-01-11 12:45  
Паранормальне явище: Примарний світ 3D / Paranormal Activity: The Ghost Dimension (2015) 1080 3D Ukr/Eng [HalfOverUnder]

Паранормальне явище: Примарний світ 3D / Paranormal Activity: The Ghost Dimension (2015) 1080 3D Ukr/Eng [HalfOverUnder]


Жанр: жахи
Країна: США



Кінокомпанія: Blumhouse Productions, Paramount Pictures
Режисер: Ґрегорі Плоткін
Актори: Ден Ґілл, Олівія Тейлор Дадлі, Кріс Дж. Мюррей, Бріт Шов, Айві Джордж, Хлоя Ксенджері, Джесіка Тайлер Браун, Кара Піфко, Майкл Кравіч, Ейден Лавкамп...

Сюжет:
Молоде подружжя Раян та Емілі, і їх 6-річна дочка Лейла переїжджають в досить симпатичний і тихий будинок. У гаражі вони знаходять відеокамеру і коробку касет. Але вони навіть не підозрювали, що вони побачать, коли заглянуть в об'єктив камери ...


Тривалість: 01:28:03
Якість: 1080 3D HalfOverUnder by Ash61
Відео:
кодек:
розмір кадру: 1920 х 1080
бітрейт: 13.6 мб/с

Аудіо # 1:
мова: українська
переклад: професійний дубльований
кодек: 2.0
бітрейт: 192 кб/с

Аудіо # 2:
мова: англійська
переклад: оригінал
кодек: 5.1
бітрейт: 640 кб/с

Джерело озвучення:
MediaInfo
General
Unique ID : 234824244685017653555601761040805707019 (0xB0A98123AE56F4B884882A84B1D0BD0B)
Complete name : D:\3D\Художні\Paranormal Activity.The Ghost Dimension (2015) 1080 3D [UKR_ENG] [Hurtom].mkv
Format : Matroska
Format version : Version 4 / Version 2
File size : 9.03 GiB
Duration : 1h 28mn
Overall bit rate : 14.7 Mbps
Movie name : Паранормальное явление 5: Призраки в 3D / Paranormal Activity: The Ghost Dimension (2015) в 3Д
Encoded date : UTC 2016-01-11 10:21:10
Writing application : mkvmerge v6.6.0 ('The Edge Of The In Between') built on Dec 18 2013 23:19:42
Writing library : libebml v1.3.0 + libmatroska v1.4.1

Video
ID : 1
Format : AVC
Format/Info : Advanced Video Codec
Format profile : [email protected]
Format settings, CABAC : Yes
Format settings, ReFrames : 4 frames
Codec ID : V_MPEG4/ISO/AVC
Duration : 1h 28mn
Bit rate : 13.6 Mbps
Width : 1 920 pixels
Height : 1 080 pixels
Display aspect ratio : 16:9
Frame rate mode : Constant
Frame rate : 23.976 (24000/1001) fps
Color space : YUV
Chroma subsampling : 4:2:0
Bit depth : 8 bits
Scan type : Progressive
Bits/(Pixel*Frame) : 0.273
Stream size : 8.34 GiB (92%)
Title : by Ash61
Writing library : core 146 r2538 121396c
Encoding settings : cabac=1 / ref=4 / deblock=1:-3:-3 / analyse=0x3:0x113 / me=umh / subme=10 / psy=1 / psy_rd=1.00:0.00 / mixed_ref=1 / me_range=32 / chroma_me=1 / trellis=2 / 8x8dct=1 / cqm=0 / deadzone=21,11 / fast_pskip=1 / chroma_qp_offset=-2 / threads=12 / lookahead_threads=3 / sliced_threads=0 / nr=0 / decimate=1 / interlaced=0 / bluray_compat=0 / constrained_intra=0 / bframes=10 / b_pyramid=2 / b_adapt=2 / b_bias=0 / direct=3 / weightb=1 / open_gop=0 / weightp=2 / keyint=250 / keyint_min=23 / scenecut=40 / intra_refresh=0 / rc_lookahead=60 / rc=crf / mbtree=1 / crf=16.5 / qcomp=0.70 / qpmin=0 / qpmax=69 / qpstep=4 / vbv_maxrate=40000 / vbv_bufsize=30000 / crf_max=0.0 / nal_hrd=none / filler=0 / frame-packing=4 / ip_ratio=1.40 / aq=1:0.70
Language : English
Default : Yes
Forced : No

Audio #1
ID : 2
Format : AC-3
Format/Info : Audio Coding 3
Mode extension : CM (complete main)
Format settings, Endianness : Big
Codec ID : A_AC3
Duration : 1h 28mn
Bit rate mode : Constant
Bit rate : 192 Kbps
Channel(s) : 2 channels
Channel positions : Front: L R
Sampling rate : 48.0 KHz
Frame rate : 31.250 fps (1536 spf)
Compression mode : Lossy
Stream size : 121 MiB (1%)
Language : Ukrainian
Default : Yes
Forced : Yes

Audio #2
ID : 3
Format : AC-3
Format/Info : Audio Coding 3
Mode extension : CM (complete main)
Format settings, Endianness : Big
Codec ID : A_AC3
Duration : 1h 28mn
Bit rate mode : Constant
Bit rate : 640 Kbps
Channel(s) : 6 channels
Channel positions : Front: L C R, Side: L R, LFE
Sampling rate : 48.0 KHz
Frame rate : 31.250 fps (1536 spf)
Compression mode : Lossy
Stream size : 403 MiB (4%)
Title : Original - BD 3D
Language : English
Default : No
Forced : No

Menu
00:00:00.000 : :1
00:01:56.074 : :2
00:09:23.313 : :3
00:17:33.177 : :4
00:24:11.492 : :5
00:29:08.288 : :6
00:36:40.990 : :7
00:42:59.452 : :8
00:49:04.441 : :9
00:56:20.669 : :10
01:04:23.610 : :11
01:11:25.323 : :12
01:22:39.121 : :13
Скріншоти

Джерело:
Особиста оцінка: 0 - не дивився

Кіно зняте не повністю у 3D! Тільки окремі сцени з жахастиками.


 Трекер:    Зареєстрований   

Завантажити / скачати фільм українською



відео для новачків



 Зареєстрований:   2016-01-11 12:45
 Розмір:   9.03 GB 
 Оцінка фільму:   8.3/10 (Голосів: 6)
   
A-VORONKIN 
Новенький


З нами з: 12.08.08
Востаннє: 10.12.16
Повідомлень: 12

2016-01-11 16:18  
Дякую за 3D!
Ваш часовий пояс: GMT + 2 Години

Нова тема   Відповісти