Завантажити та скачати торренти українською


Золото дурнів / Fool's Gold (2008) 1080p 2xUkr/Eng | Sub Eng/Swe/Fin

Нові коментарі

Нова тема   Відповісти
Автор Повідомлення
demotyvator 
Частий відвідувач


З нами з: 24.02.12
Востаннє: 28.11.16
Повідомлень: 35

2016-01-10 22:48  
Золото дурнів / Fool's Gold (2008) 1080p 2xUkr/Eng | Sub Eng/Swe/Fin

Золото дурнів / Fool's Gold (2008) 1080p 2xUkr/Eng | Sub Eng/Swe/Fin


Жанр: комедія, екшн, пригодницький
Країна: США



Кінокомпанія: Warner Bros. Pictures
Режисер: Енді Теннант
Актори: Метью МакКонаґі, Кейт Гадсон, Дональд Сазерленд, Алексіс Дзена, Еван Бремнер, Рей Вінстон та інші

Сюжет:
Цікава пригодницька комедія про двох шукачів скарбів, що розлучилися, розчарувавшись у своїх стосунках. Але коли вони знаходять довгоочікувану підказку, об'єднують свої зусилля у прагненні відшукати легендарний скарб, що ніби-то затонув у 1715 році десь у Карибському морі. Але не лише вони полюють на ці скарби...


Тривалість: 01:52:26
Якість: 1080p
Відео:
кодек:
розмір кадру: 1 920 х 800
бітрейт: 9 473 кб/с

Аудіо # 1:
мова: українська
переклад: професійний дубльований
кодек: 5.1
бітрейт: 448 кб/с

Аудіо # 2:
мова: українська
переклад: багатоголосий закадровий
кодек: моно
бітрейт: 96 кб/с

Аудіо # 3:
мова: англійська
переклад: оригінал
кодек: 5.1
бітрейт: 640 кб/с

Субтитри # 1-3:
мова: англійська, шведська, фінська
тип: програмні (м'які)
формат: *.ass
MediaInfo
General
Unique ID : 178824062083660504549047391250269492925 (0x868842F7D98EF25593A373595E3A56BD)
Complete name : F:\Fool's Gold (2008) 1080p [2xUkr,Eng Sub Eng, Swe, Fin] [Hurtom] by demotyvator.mkv
Format : Matroska
Format version : Version 2
File size : 8.37 GiB
Duration : 1h 52mn
Overall bit rate : 10.7 Mbps
Encoded date : UTC 2016-01-10 15:42:21
Writing application : mkvmerge v5.6.0 ('Kenya Kane') built on May 27 2012 16:44:04
Writing library : libebml v1.2.3 + libmatroska v1.3.0

Video
ID : 1
Format : AVC
Format/Info : Advanced Video Codec
Format profile : [email protected]
Format settings, CABAC : Yes
Format settings, ReFrames : 5 frames
Codec ID : V_MPEG4/ISO/AVC
Duration : 1h 52mn
Nominal bit rate : 9 473 Kbps
Width : 1 920 pixels
Height : 800 pixels
Display aspect ratio : 2.40:1
Frame rate mode : Constant
Frame rate : 23.976 fps
Color space : YUV
Chroma subsampling : 4:2:0
Bit depth : 8 bits
Scan type : Progressive
Bits/(Pixel*Frame) : 0.257
Writing library : core 59 r859 ce13bb6
Encoding settings : cabac=1 / ref=5 / deblock=1:0:0 / analyse=0x3:0x133 / me=umh / subme=6 / brdo=1 / mixed_ref=1 / me_range=16 / chroma_me=1 / trellis=1 / 8x8dct=1 / cqm=0 / deadzone=21,11 / chroma_qp_offset=0 / threads=6 / nr=0 / decimate=1 / mbaff=0 / bframes=3 / b_pyramid=1 / b_adapt=1 / b_bias=0 / direct=1 / wpredb=1 / bime=1 / keyint=250 / keyint_min=25 / scenecut=40(pre) / rc=2pass / bitrate=9473 / ratetol=1.0 / rceq='blurCplx^(1-qComp)' / qcomp=1.00 / qpmin=10 / qpmax=51 / qpstep=4 / cplxblur=20.0 / qblur=0.5 / ip_ratio=1.40 / pb_ratio=1.30 / aq=2:1.00
Language : English
Default : Yes
Forced : No

Audio #1
ID : 2
Format : AC-3
Format/Info : Audio Coding 3
Mode extension : CM (complete main)
Format settings, Endianness : Big
Codec ID : A_AC3
Duration : 1h 52mn
Bit rate mode : Constant
Bit rate : 448 Kbps
Channel(s) : 6 channels
Channel positions : Front: L C R, Side: L R, LFE
Sampling rate : 48.0 KHz
Compression mode : Lossy
Stream size : 360 MiB (4%)
Title : українська Blu-Ray
Language : Ukrainian
Default : Yes
Forced : No

Audio #2
ID : 3
Format :
Format/Info : Advanced Audio Codec
Format profile : LC
Codec ID : A_AAC
Duration : 1h 52mn
Channel(s) : 1 channel
Channel positions : Front: C
Sampling rate : 44.1 KHz
Compression mode : Lossy
Title : українська "Інтер"
Language : Ukrainian
Default : No
Forced : No

Audio #3
ID : 4
Format : AC-3
Format/Info : Audio Coding 3
Mode extension : CM (complete main)
Format settings, Endianness : Big
Codec ID : A_AC3
Duration : 1h 52mn
Bit rate mode : Constant
Bit rate : 640 Kbps
Channel(s) : 6 channels
Channel positions : Front: L C R, Side: L R, LFE
Sampling rate : 48.0 KHz
Compression mode : Lossy
Stream size : 515 MiB (6%)
Title : англійська
Language : English
Default : No
Forced : No

Text #1
ID : 5
Format : ASS
Codec ID : S_TEXT/ASS
Codec ID/Info : Advanced Sub Station Alpha
Compression mode : Lossless
Title : Fool's Gold (2008).720p.BluRay..Tr_04.Sub-Eng
Language : English
Default : Yes
Forced : No

Text #2
ID : 6
Format : ASS
Codec ID : S_TEXT/ASS
Codec ID/Info : Advanced Sub Station Alpha
Compression mode : Lossless
Title : Fool's Gold (2008).720p.BluRay..Tr_05.Sub-Swe
Language : Swedish
Default : No
Forced : No

Text #3
ID : 7
Format : ASS
Codec ID : S_TEXT/ASS
Codec ID/Info : Advanced Sub Station Alpha
Compression mode : Lossless
Title : Fool's Gold (2008).720p.BluRay..Tr_06.Sub-Fin
Language : Finnish
Default : No
Forced : No
Скріншоти





Дякую:
панові vs_p за другу українську доріжку
панові DiGen за субтитри


Джерело: & &
Особиста оцінка: 10 - без зайвих вагань рекомендую всім!


 Трекер:    Зареєстрований   

Завантажити / скачати фільм українською



відео для новачків



 Зареєстрований:   2016-01-10 22:48
 Розмір:   8.37 GB 
 Оцінка фільму:   8.8/10 (Голосів: 5)
   
Інші релізи
   Золото дурнів / Fool's Gold (2008) 2xUkr/Eng Arsenfpu  2 / 0   2.19 GB   2016-06-18 21:38 
   Золото дурнів / Fool's Gold (2008) 720p Ukr/Eng | Sub Multilanguage DiGen  3 / 0   4.37 GB   2010-04-20 02:38 
Virake 
Localize Team
Localize Team


З нами з: 07.07.09
Востаннє: 04.12.16
Повідомлень: 4052

2016-01-10 23:56  
demotyvator написано:
кладошукачів
ну як так можна....

Додано через 38 секунд:

правильно буде "золотошукачів", або "шукачів скарбів"

igor911 
Відео Гуртом
Відео Гуртом


З нами з: 18.01.08
Востаннє: 04.12.16
Повідомлень: 5133

2016-01-10 23:57  
виправив
DoctorLife 
Новенький


З нами з: 19.04.10
Востаннє: 04.12.16
Повідомлень: 17

2016-01-21 21:47  
Українською - чудовий і дуже веселий фільм. Дивно що такий низький рейтинг.
Ваш часовий пояс: GMT + 2 Години

Нова тема   Відповісти