Завантажити та скачати торренти українською


Еверест / Everest (2015) 1080p 3D Ukr/Eng | Sub Ukr/Eng [Half OverUnder]

Нові коментарі

Нова тема   Відповісти
Автор Повідомлення
-VipeR- 
VIP


З нами з: 17.07.08
Востаннє: 04.12.16
Повідомлень: 275

2016-01-08 11:39  
Еверест / Everest (2015) 1080p 3D Ukr/Eng | Sub Ukr/Eng [Half OverUnder]

Еверест / Everest (2015) 1080p 3D Ukr/Eng | Sub Ukr/Eng [Half OverUnder]


Жанр: пригодницький, біографічний, драма
Країна: Велика Британія, США, Ісландія



Кінокомпанія: Working Title Films, RVK Studios, Walden Media
Режисер: Бальтасар Кормакур
Актори: Джейсон Кларк, Джош Бролін, Джейк Джилленгал, Сем Вортінґтон, Джон Гоукс, Майкл Келлі, Інґвар Еґґерт Сіґюрдссон, Кіра Найтліі, Емілі Вотсон, Робін Райт

Сюжет:
Досвідчений інструктор Роб Голл, зібравши групу з кращих альпіністів, збирається здійснити сходження на найвищу вершину планети. Всі ці люди сповнені мужності і відваги і вони не зупиняться ні перед чим, поки не піднімуться на вершину Евересту. Але навіть якщо ця гора підкориться їм, чи зможуть вони повернутися назад живими і неушкодженими?


Тривалість: 02:01:11
Якість: 1080 3D Half OverUnder By ASH61
Відео:
кодек:
розмір кадру: 1920 х 1080
бітрейт: 8195 кб/с

Аудіо # 1:
мова: українська
переклад: професійний дубльований
кодек: 2.0
бітрейт: 192 кб/с

Аудіо # 2:
мова: англійська
переклад: оригінал
кодек: 5.1
бітрейт: 640 кб/с

Субтитри # 1-2:
мова: українська (форсовані, повні)
тип: програмні (м'які)
формат: *.srt

Субтитри # 3:
мова: англійська
тип: програмні (м'які)
формат: *.srt
MediaInfo
General
Unique ID : 222405590273887690226643173597588883737 (0xA751C23450941D1AB0BAC1C445BA0919)
Complete name : D:\3D\Художні\Everest(2015)3D halfOU(Ash61) Ukr Eng Sub Ukr Eng\Everest(2015)3D halfOU(Ash61) Ukr Eng Sub Ukr Eng.mkv
Format : Matroska
Format version : Version 4 / Version 2
File size : 7.80 GiB
Duration : 2h 1mn
Overall bit rate : 9 220 Kbps
Movie name : Эверест / Everest (2015) в 3Д
Encoded date : UTC 2016-01-08 08:52:13
Writing application : mkvmerge v6.6.0 ('The Edge Of The In Between') built on Dec 18 2013 23:19:42
Writing library : libebml v1.3.0 + libmatroska v1.4.1

Video
ID : 1
Format : AVC
Format/Info : Advanced Video Codec
Format profile : [email protected]
Format settings, CABAC : Yes
Format settings, ReFrames : 4 frames
Codec ID : V_MPEG4/ISO/AVC
Duration : 2h 1mn
Bit rate : 8 204 Kbps
Width : 1 920 pixels
Height : 1 080 pixels
Display aspect ratio : 16:9
Frame rate mode : Constant
Frame rate : 23.976 (24000/1001) fps
Color space : YUV
Chroma subsampling : 4:2:0
Bit depth : 8 bits
Scan type : Progressive
Bits/(Pixel*Frame) : 0.165
Stream size : 6.94 GiB (89%)
Title : by Ash61
Writing library : core 146 r2538 121396c
Encoding settings : cabac=1 / ref=4 / deblock=1:-3:-3 / analyse=0x3:0x113 / me=umh / subme=10 / psy=1 / psy_rd=1.00:0.00 / mixed_ref=1 / me_range=32 / chroma_me=1 / trellis=2 / 8x8dct=1 / cqm=0 / deadzone=21,11 / fast_pskip=1 / chroma_qp_offset=-2 / threads=12 / lookahead_threads=3 / sliced_threads=0 / nr=0 / decimate=1 / interlaced=0 / bluray_compat=0 / constrained_intra=0 / bframes=10 / b_pyramid=2 / b_adapt=2 / b_bias=0 / direct=3 / weightb=1 / open_gop=0 / weightp=2 / keyint=250 / keyint_min=23 / scenecut=40 / intra_refresh=0 / rc_lookahead=60 / rc=crf / mbtree=1 / crf=16.0 / qcomp=0.70 / qpmin=0 / qpmax=69 / qpstep=4 / vbv_maxrate=40000 / vbv_bufsize=30000 / crf_max=0.0 / nal_hrd=none / filler=0 / frame-packing=4 / ip_ratio=1.40 / aq=1:0.70
Language : English
Default : Yes
Forced : No

Audio #1
ID : 2
Format : AC-3
Format/Info : Audio Coding 3
Mode extension : CM (complete main)
Format settings, Endianness : Big
Codec ID : A_AC3
Duration : 2h 1mn
Bit rate mode : Constant
Bit rate : 192 Kbps
Channel(s) : 2 channels
Channel positions : Front: L R
Sampling rate : 48.0 KHz
Frame rate : 31.250 fps (1536 spf)
Compression mode : Lossy
Stream size : 166 MiB (2%)
Title : Дубляж - Line
Language : Ukrainian
Default : Yes
Forced : Yes

Audio #2
ID : 3
Format : AC-3
Format/Info : Audio Coding 3
Mode extension : CM (complete main)
Format settings, Endianness : Big
Codec ID : A_AC3
Duration : 2h 1mn
Bit rate mode : Constant
Bit rate : 640 Kbps
Channel(s) : 6 channels
Channel positions : Front: L C R, Side: L R, LFE
Sampling rate : 48.0 KHz
Frame rate : 31.250 fps (1536 spf)
Compression mode : Lossy
Stream size : 555 MiB (7%)
Title : Original - BD 3D
Language : English
Default : No
Forced : No

Text #1
ID : 4
Format : UTF-8
Codec ID : S_TEXT/UTF8
Codec ID/Info : UTF-8 Plain Text
Title : Форсированные
Language : Ukrainian
Default : No
Forced : No

Text #2
ID : 5
Format : UTF-8
Codec ID : S_TEXT/UTF8
Codec ID/Info : UTF-8 Plain Text
Title : Полные
Language : Ukrainian
Default : No
Forced : No

Text #3
ID : 6
Format : UTF-8
Codec ID : S_TEXT/UTF8
Codec ID/Info : UTF-8 Plain Text
Title : Full
Language : English
Default : No
Forced : No

Menu
00:00:00.000 : :1
00:05:12.144 : :2 / :3
00:09:36.075 : :4
00:15:13.162 : :5
00:20:58.423 : :6
00:26:30.712 : :7
00:26:30.713 : :8
00:33:15.116 : :9
00:33:15.117 : :10
00:40:23.753 : :11
00:40:23.755 : :12
00:47:23.382 : :13
00:52:14.588 : :14
00:52:14.590 : :15
00:57:49.172 : :16
00:57:49.173 : :17
01:01:54.793 : :18 / :19
01:07:22.079 : :20
01:15:40.577 : :21
01:15:40.578 : :22
01:21:03.899 : :23
01:26:59.587 : :24
01:26:59.588 : :25
01:32:39.136 : :26
01:41:20.448 : :27 / :28
01:46:47.649 : :29
01:46:47.650 : :30
01:54:06.463 : :31
01:54:06.465 : :32
Скріншоти
Джерело:
Особиста оцінка: 8 - мені сподобалося


 Трекер:    Зареєстрований   

Завантажити / скачати фільм українською



відео для новачків



 Зареєстрований:   2016-01-08 11:39
 Розмір:   7.8 GB 
 Оцінка фільму:   9.4/10 (Голосів: 14)
   
Інші релізи
   Еверест / Everest (2015) Ukr/Eng | Sub Ukr/Eng Covenant  15 / 0   2.18 GB   2015-12-18 21:59 
   Еверест / Everest (2015) 1080p Ukr/Eng | Sub Ukr/Eng 11FrYkT  15 / 0   11.07 GB   2015-12-17 17:53 
   Еверест / Everest (2015) 720p Ukr/Eng | Sub Ukr/Eng 11FrYkT  18 / 1   5.03 GB   2015-12-17 17:44 
   Еверест / Everest (2015) Ukr/Eng | Sub Ukr/Eng Gelios  32 / 0   1.45 GB   2015-12-16 19:58 
   Еверест / Everest (2015) AVC patriot2305  16 / 0   1.86 GB   2015-11-19 21:14 
ika1963 
Відео Гуртом - дизайнер
Відео Гуртом - дизайнер


З нами з: 13.05.10
Востаннє: 02.12.16
Повідомлень: 200

2016-01-08 14:40  
Дякую за реліз, але, за що такий низький бітрейт: 8195 кб/с? HD-версія тут і то має бітрейт: 10900 кб/с...
igor911 
Відео Гуртом
Відео Гуртом


З нами з: 18.01.08
Востаннє: 05.12.16
Повідомлень: 5133

2016-01-08 15:26  
ika1963, тут бітрейт визначається параметрами кодування
-VipeR- написано:
crf=16.0 vbv_maxrate=40000 / vbv_bufsize=30000

тобто в режимі сталого рівня якості h264 сам підбирає необхідний бітрейт для заданого рівня якості, враховуючи здатність відео до стискання. crf=16 на практиці означає, що якість на око не відрізняється від оригіналу. Єдине, що параметри vbv_maxrate=40000 / vbv_bufsize=30000 дещо обмежують його проти стандартних vbv_maxrate=62500 / vbv_bufsize=78125.

ika1963 
Відео Гуртом - дизайнер
Відео Гуртом - дизайнер


З нами з: 13.05.10
Востаннє: 02.12.16
Повідомлень: 200

2016-01-08 15:52  
Бачив, що в неті на посилання заборонені є версія "Everest" / 2015 / ДБ, СТ / 2D, 3D / Blu-Ray Remux (1080p)" с бітрейтом 21038 Кбит/с. Картинка люксусова, але там нема укр. доріжки. Чи буде тут така ж якість картинки?
igor911 
Відео Гуртом
Відео Гуртом


З нами з: 18.01.08
Востаннє: 05.12.16
Повідомлень: 5133

2016-01-08 16:02  
ika1963, ну як і все тут - якщо знайдеться бажаючий викласти - то буде. Я не планую.
ika1963 написано:
Картинка на семплі люксусова

бо в ремукси йде відео з блурея без втручання кодувальників. Українську доріжку (нормалізовану) можна взяти тут

-VipeR- 
VIP


З нами з: 17.07.08
Востаннє: 04.12.16
Повідомлень: 275

2016-01-08 16:03  
ika1963
Я точно не викладатиму Remux-и, вже місце на жорсткому диску і так закінчується Happy
Якість тут хороша, хіба що у вас 100 дюймовий 4k телевізор...

Vitala9 
Поважний учасник


З нами з: 03.01.10
Востаннє: 04.12.16
Повідомлень: 209

2016-01-09 01:59  
Чекав на гарну якість цього фільму дуже довго...

Якість з"явилася , та ще й у 3D - це +, цікаво , данний звук Line не зіпсує цю прекрасну картинку , якщо переглядати фільм на великій плазмі ?

ika1963 
Відео Гуртом - дизайнер
Відео Гуртом - дизайнер


З нами з: 13.05.10
Востаннє: 02.12.16
Повідомлень: 200

2016-01-09 03:27  
Vitala9, є непоганий спосіб, - скачуєш фільм в хорошій якості, той же блю-рей, на іншому ресурсі, а тут береш цей же фільм з укр. доріжкою, можна навіть у двдріпі, якщо час обидвох версій однаковий (в більшості так і є). Звук відправляєш на колонки через планшет чи комп з двдріпу, відео через інший комп чи меіаплеєр на телік без звуку. Головне почати одночасно, щоб не було росінхрону... Happy
-VipeR- 
VIP


З нами з: 17.07.08
Востаннє: 04.12.16
Повідомлень: 275

2016-01-09 10:16  
Vitala9
Кращого звуку не буде. Якщо принципово якість звуку, та є хороша звукова апаратура дивіться в оригіналі з субтитрами. Якщо ж звук з динаміків телевізора, то Line достатньо. Я дискомфорту не відчув.

Дмитро митро 
Відео Гуртом - дизайнер
Відео Гуртом - дизайнер


З нами з: 18.02.09
Востаннє: 01.12.16
Повідомлень: 711

2016-01-09 14:19  
-VipeR-
Тобто 5.1 взагалі не буде?

igor911 
Відео Гуртом
Відео Гуртом


З нами з: 18.01.08
Востаннє: 05.12.16
Повідомлень: 5133

2016-01-09 14:37  
Дмитро митро, судячи зі слів автора сусідньої 1080р теми - ліцензії не буде.
PUMAUA 
Свій


З нами з: 07.11.09
Востаннє: 02.12.16
Повідомлень: 56

2016-01-30 18:05  
От телепні. Нащо пертись на ту гору?!
Дмитро митро 
Відео Гуртом - дизайнер
Відео Гуртом - дизайнер


З нами з: 18.02.09
Востаннє: 01.12.16
Повідомлень: 711

2016-01-31 14:24  
PUMAUA
Щоб лани широкополі,
І Дніпро, і кручі
Було видно, було чути,
Як реве ревучий.

Косячок справжній 
VIP


З нами з: 29.02.12
Востаннє: 04.12.16
Повідомлень: 656

2016-01-31 20:40  
Дмитро митро
)

Ваш часовий пояс: GMT + 2 Години

Нова тема   Відповісти