Завантажити та скачати торренти українською


Остання спокуса Христа / The Last Temptation Of Christ (1988) 720p Ukr/Eng | Sub Eng

Нові коментарі

Нова тема   Відповісти
Автор Повідомлення
leroykendall 
Модератор HD


З нами з: 03.01.11
Востаннє: 20.11.16
Повідомлень: 749

2016-01-05 22:55  
Остання спокуса Христа / The Last Temptation Of Christ (1988) 720p Ukr/Eng | Sub Eng

Остання спокуса Христа / The Last Temptation Of Christ (1988) 720p Ukr/Eng | Sub Eng


Жанр: драма, психологічний, містика
Країна: США, Канада



Кінокомпанія: Universal Pictures, Cineplex Odeon Films
Режисер: Мартін Скорцезе
Актори: Вільям Дефо/Willem Dafoe, Гарві Кейтель/Harvey Keitel, Барбара Герші/Barbara Hershey, Ірвін Кершнер/Irvin Kershner, Девід Боуї/David Bowie

Сюжет:
Екранізація одноіменного романа Нікоса Казандзакіса. За словами Мартіна Скорцезе, цей фільм спирається не на євангелія, а на художнє дослідження цього одвічного конфлікту.

Дещо про толерантність

Російський інститут культурології вивчив на предмет наявності екстремізму кінофільм "Остання спокуса Христа" режисера Мартіна Скорсезе, що вийшов в 1988 році, і дійшов висновку, що в ньому немає нічого екстремістського, хоча він не відповідає християнським догмам. Про це повідомив РІА Новини директор інституту кінознавець Кирило Разлогов.

Прокуратура Москви повідомила, що перевіряє необхідність заборони фільму "Остання спокуса Христа" за зверненням депутата Держдуми від ЛДПР Олександра Старовойтова, який попросив перевірити картину на наявність екстремізму.

"Наш інститут дав висновок про те, що твори такого рівня взагалі не підлягають розгляду, тому що це художній твір, а не публіцистичне висловлювання... Художник має право як варіанти розглядати будь-які ситуації", - сказав Разлогов.

Зі слів співрозмовника, висновок на картину було написано сім-десять днів тому. Директор РВК не уточнив, на чий саме запит давали цей висновок.

"Можна по-різному ставитися до того, що фізично показано, але в цьому фільмі нічого фізично не показано, що було б негожим. Фільм цей - філософський роздум про складну долю Ісуса Христа як людини. Нічого екстремістського навіть близько там немає, але це не збігається з догмами християнства. Але художник має право міркувати і над догмами християнства, і над догмами ісламу, і над догмами буддизму, і над іншими догмами", - зазначив кінознавець.

Він також нагадав, що картина Скорсезе є екранізацією роману "Остання спокуса" грецького письменника Нікоса Казандзакіса.

Скандальний роман вийшов у 1955 році і досліджує конфлікт між божественною і людською сторонами життя Христа.

"Ну, давайте розберемося з Казандзакісом, давайте розберемося з єресями різного роду, які існували, давайте розбиратися з різного роду вільнодумством, яке ще теж остаточно не викорінено, але тоді ми далеко ризикуємо зайти... Це частина більш загальної проблеми: наскільки твори мистецтва, видатні твори мистецтва, до числа яких фільм, безумовно, належить, піддаються взагалі такого роду аналізу", - заявив Разлогов.

Президент гільдії кінознавців і кінокритиків Спілки кінематографістів РФ Андрій Шем’якін підтримав цю думку.

"Цей фільм - насамперед екранізація роману. Він містить протиставлення мирського життя і духовного. Але це художнє висловлювання", - сказав він РІА "Новости".

На думку Шем’якіна, фільм Скорсезе вже давно отримав свою оцінку і, можливо, є "найбільш спірним твором великого художника".
Премії та нагороди
1989 — номінація на премію Оскар (кращий режисер)
1989 — номінації на Золотий Глобус (краща музика до фільму (Пітер Гебріел), краща актриса другого плану (Барбара Герші))
1989 — номінація на премію Греммі (кращий альбом інструментального супроводу до фільму (Пітер Гебріел))
2004 — номінація на MTV Movie Awards (краще екранне диво (перетворення Ісусом води у вино))
1988 — фільм учасник конкурсної програми Венеційського кінофестивалю (премія кінокритиків «Bastone Bianco» (Мартін Скорсезе))

Тривалість: 02:43:39
Якість: 720p

Відео:
кодек:
розмір кадру: 1280 x 686
бітрейт: 9705 кб/с

Аудіо # 1:
мова: українська
переклад: багатоголосий закадровий
кодек: 2.0
бітрейт: 192 кб/с

Аудіо # 2:
мова: англійська
переклад: оригінал
кодек: 5.1
бітрейт: 448 кб/с

Джерело озвучення:


Субтитри # 1, 2:
мова: англійська повні, SDH
тип: програмні (м'які)
формат: *.srt

Збережені оригінальні чаптери як на Blu-ray.
MediaInfo
Код:
General
Unique ID                                : 173356391835694110317317967089649196988 (0x826B3A03079823D1AB9AD83902621FBC)
Complete name                            : V:\The Last Temptation of Christ (1988) [Ukr, Eng] 720p [Hurtom] by leroykendall.mkv
Format                                   : Matroska
Format version                           : Version 4 / Version 2
File size                                : 12.1 GiB
Duration                                 : 2h 43mn
Overall bit rate                         : 10.6 Mbps
Encoded date                             : UTC 2015-09-20 11:22:37
Writing application                      : mkvmerge v8.2.0 ('World of Adventure') 32bit
Writing library                          : libebml v1.3.1 + libmatroska v1.4.2
DURATION                                 : 02:43:39.392000000
NUMBER_OF_FRAMES                         : 306856
NUMBER_OF_BYTES                          : 549885952
_STATISTICS_WRITING_APP                  : mkvmerge v8.2.0 ('World of Adventure') 32bit
_STATISTICS_WRITING_DATE_UTC             : 2015-09-20 11:22:37
_STATISTICS_TAGS                         : BPS DURATION NUMBER_OF_FRAMES NUMBER_OF_BYTES

Video
ID                                       : 1
Format                                   : AVC
Format/Info                              : Advanced Video Codec
Format profile                           : [email protected]
Format settings, CABAC                   : Yes
Format settings, ReFrames                : 9 frames
Codec ID                                 : V_MPEG4/ISO/AVC
Duration                                 : 2h 43mn
Bit rate                                 : 9 705 Kbps
Width                                    : 1 280 pixels
Height                                   : 686 pixels
Display aspect ratio                     : 1.85:1
Frame rate mode                          : Constant
Frame rate                               : 23.976 fps
Color space                              : YUV
Chroma subsampling                       : 4:2:0
Bit depth                                : 8 bits
Scan type                                : Progressive
Bits/(Pixel*Frame)                       : 0.461
Stream size                              : 11.1 GiB (92%)
Writing library                          : core 120 r2146kMod bcd41db
Encoding settings                        : cabac=1 / ref=9 / deblock=1:-3:-3 / analyse=0x3:0x133 / me=umh / subme=11 / psy=1 / fade_compensate=0.00 / psy_rd=1.20:0.05 / mixed_ref=1 / me_range=24 / chroma_me=1 / trellis=2 / 8x8dct=1 / cqm=0 / deadzone=21,11 / fast_pskip=0 / chroma_qp_offset=-3 / threads=6 / sliced_threads=0 / nr=0 / decimate=0 / interlaced=0 / bluray_compat=0 / constrained_intra=0 / bframes=8 / b_pyramid=2 / b_adapt=2 / b_bias=0 / direct=3 / weightb=1 / open_gop=0 / weightp=2 / keyint=250 / keyint_min=23 / scenecut=40 / intra_refresh=0 / rc=crf / mbtree=0 / crf=18.0000 / qcomp=0.70 / qpmin=10 / qpmax=51 / qpstep=4 / ip_ratio=1.30 / pb_ratio=1.20 / aq=1:0.40
Language                                 : English
Default                                  : No
Forced                                   : No
DURATION                                 : 02:43:39.393000000
NUMBER_OF_FRAMES                         : 235430
NUMBER_OF_BYTES                          : 12167200262
_STATISTICS_WRITING_APP                  : mkvmerge v8.2.0 ('World of Adventure') 32bit
_STATISTICS_WRITING_DATE_UTC             : 2015-09-20 11:22:37
_STATISTICS_TAGS                         : BPS DURATION NUMBER_OF_FRAMES NUMBER_OF_BYTES

Audio #1
ID                                       : 2
Format                                   : AC-3
Format/Info                              : Audio Coding 3
Mode extension                           : CM (complete main)
Format settings, Endianness              : Big
Codec ID                                 : A_AC3
Duration                                 : 2h 43mn
Bit rate mode                            : Constant
Bit rate                                 : 192 Kbps
Channel(s)                               : 2 channels
Channel positions                        : Front: L R
Sampling rate                            : 48.0 KHz
Bit depth                                : 16 bits
Compression mode                         : Lossy
Stream size                              : 225 MiB (2%)
Title                                    : Ukrainian (1+1) 2.0ch 192kbps
Language                                 : Ukrainian
Default                                  : Yes
Forced                                   : No

Audio #2
ID                                       : 3
Format                                   : AC-3
Format/Info                              : Audio Coding 3
Mode extension                           : CM (complete main)
Format settings, Endianness              : Big
Codec ID                                 : A_AC3
Duration                                 : 2h 43mn
Bit rate mode                            : Constant
Bit rate                                 : 448 Kbps
Channel(s)                               : 6 channels
Channel positions                        : Front: L C R, Side: L R, LFE
Sampling rate                            : 48.0 KHz
Bit depth                                : 16 bits
Compression mode                         : Lossy
Stream size                              : 524 MiB (4%)
Language                                 : English
Default                                  : No
Forced                                   : No

Text #1
ID                                       : 4
Format                                   : UTF-8
Codec ID                                 : S_TEXT/UTF8
Codec ID/Info                            : UTF-8 Plain Text
Language                                 : English
Default                                  : No
Forced                                   : No

Text #2
ID                                       : 5
Format                                   : UTF-8
Codec ID                                 : S_TEXT/UTF8
Codec ID/Info                            : UTF-8 Plain Text
Title                                    : SDH
Language                                 : English
Default                                  : No
Forced                                   : No

Menu
00:00:00.000                             : en: 1. The feeling begins
00:07:02.881                             : en: 2."Condemned to die"
00:12:25.828                             : en: 3. Magdalene
00:17:28.631                             : en: 4."I need you to forgive me"
00:23:00.796                             : en: 5. The master
00:28:19.114                             : en: 6. Purified
00:33:28.465                             : en: 7. The Sermon on the Mount
00:42:08.609                             : en: 8. The foundation
00:48:13.474                             : en: 9. John the Baptist
00:53:48.767                             : en:10."Speak to me in human words"
01:01:41.823                             : en:11. Return to the desert
01:09:16.486                             : en:12. Casting out devils and working cures
01:15:00.413                             : en:13. Rejected at Nazareth
01:19:25.219                             : en:14. Lazarus
01:23:37.387                             : en:15. The saint of blasphemy
01:29:09.511                             : en:16. The shadow of the cross
01:33:57.799                             : en:17."King of the Jews"
01:37:49.947                             : en:18. Waiting for the sign
01:43:46.554                             : en:19. Passover/The Last Supper
01:48:22.538                             : en:20."Do I have to die?"
01:53:54.911                             : en:21. Pontius Pilate
01:58:24.180                             : en:22. Golgotha
02:05:07.667                             : en:23."Why have you forsaken me?"
02:09:46.570                             : en:24. The world of God
02:18:04.359                             : en:25."There's only one woman in the world"
02:22:04.891                             : en:26. Paul
02:28:33.238                             : en:27. Moving on
02:37:03.205                             : en:28."It is accomplished"
02:39:37.860                             : en:29. Credits
Скріншоти:




Подяка
п. Tanat13 за еталонний реліз та український звук



Срібний реліз (на рейтинг впливає 50% завантаженого)
 Трекер:    Зареєстрований   

Завантажити / скачати фільм українською



відео для новачків



 Зареєстрований:   2016-01-05 22:55
 Розмір:   12.07 GB 
 Оцінка фільму:   8/10 (Голосів: 4)
   
Інші релізи
Ваш часовий пояс: GMT + 2 Години

Нова тема   Відповісти