Завантажити та скачати торренти українською


Термінатор. Генезис / Terminator. Genisys (2015) 1080p 3D Ukr/Eng | Sub Eng [Half OverUnder]

Нові коментарі

Нова тема   Відповісти
Автор Повідомлення
-VipeR- 
VIP


З нами з: 17.07.08
Востаннє: 09.12.16
Повідомлень: 274

2016-01-05 13:49  
Термінатор. Генезис / Terminator. Genisys (2015) 1080p 3D Ukr/Eng | Sub Eng [Half OverUnder]

Термінатор. Генезис / Terminator. Genisys (2015) 1080p 3D Ukr/Eng | Sub Eng [Half OverUnder]


Жанр: екшн, пригодницький, фантастика, трилер
Країна: США



Кінокомпанія: Paramount Pictures, Skydance Productions
Режисер: Алан Тейлор / Alan Taylor
Актори: Арнольд Шварценеґер / Arnold Schwarzenegger, Джейсон Кларк / Jason Clarke, Емілія Кларк / Emilia Clarke, Джей Кортні / Jai Courtney, Дж. К. Сіммонс / J.K. Simmons, Дайо Окенайї / Dayo Okeniyi, Метт Сміт / Matt Smith, Кортні Б. Венс / Courtney B. Vance, Бен Хан Лі / Byung-hun Lee, Сандрін Голт / Sandrine Holt та інші

Сюжет:
Постійні занурення людей і термінаторів в минуле щоб змінити майбутнє призводять до перелому в полотні часу. Тепер, відправлений Джоном Коннором солдат Кайл Різ, покликаний захищати матір надії людства, потрапляє у світ, в якому все трохи інакше, ніж він думав. Він зустрічає постарілу модель робота Т-800, який був присланий на захист Сари з іншого витка часу. Ворог же тепер наступає не тільки з майбутнього, але й з минулого. Проти Різа, його підзахисної і трохи зношеного Т-800 виступають відразу кілька моделей кіборгів-убивць. Але найстрашнішим було побачити самого Джона Коннора, який прибув один з вельми неприємною місією...


Тривалість: 02:05:43
Якість: 1080p 3D [Half OverUnder] Rip by Ash61
Відео:
кодек:
розмір кадру: 1920х1080
бітрейт: 6 542 кб/с

Аудіо # 1:
мова: українська
переклад: професійний дубльований (Дублювання - IPTV)
кодек: 2.0
бітрейт: 192 кб/с

Аудіо # 2:
мова: англійська
переклад: оригінал
кодек: 5.1
бітрейт: 640 кб/с

Джерело озвучення:


Субтитри:
мова: англійська
тип: програмні (м'які)
формат: *.srt
MediaInfo
eneral
Unique ID : 231743632535463116894208091535981951852 (0xAE58333BDBAC228F93DBCC04B9B03B6C)
Complete name : D:\3D\Художні\TerminatorGenisys(2015)3D-halfOU(Ash61) UKR ENG\TerminatorGenisys(2015)3D-halfOU(Ash61) UKR ENG.mkv
Format : Matroska
Format version : Version 4 / Version 2
File size : 6.61 GiB
Duration : 2h 5mn
Overall bit rate : 7 524 Kbps
Movie name : Терминатор: Генезис / Terminator Genisys (2015) в 3Д
Encoded date : UTC 2016-01-05 11:25:55
Writing application : mkvmerge v6.6.0 ('The Edge Of The In Between') built on Dec 18 2013 23:19:42
Writing library : libebml v1.3.0 + libmatroska v1.4.1

Video
ID : 1
Format : AVC
Format/Info : Advanced Video Codec
Format profile : [email protected]
Format settings, CABAC : Yes
Format settings, ReFrames : 4 frames
Codec ID : V_MPEG4/ISO/AVC
Duration : 2h 5mn
Bit rate : 6 542 Kbps
Width : 1 920 pixels
Height : 1 080 pixels
Display aspect ratio : 16:9
Frame rate mode : Constant
Frame rate : 23.976 (24000/1001) fps
Color space : YUV
Chroma subsampling : 4:2:0
Bit depth : 8 bits
Scan type : Progressive
Bits/(Pixel*Frame) : 0.132
Stream size : 5.74 GiB (87%)
Title : by Ash61
Writing library : core 146 r2538 121396c
Encoding settings : cabac=1 / ref=4 / deblock=1:-3:-3 / analyse=0x3:0x113 / me=umh / subme=10 / psy=1 / psy_rd=1.00:0.00 / mixed_ref=1 / me_range=32 / chroma_me=1 / trellis=2 / 8x8dct=1 / cqm=0 / deadzone=21,11 / fast_pskip=1 / chroma_qp_offset=-2 / threads=12 / lookahead_threads=3 / sliced_threads=0 / nr=0 / decimate=1 / interlaced=0 / bluray_compat=0 / constrained_intra=0 / bframes=10 / b_pyramid=2 / b_adapt=2 / b_bias=0 / direct=3 / weightb=1 / open_gop=0 / weightp=2 / keyint=250 / keyint_min=23 / scenecut=40 / intra_refresh=0 / rc_lookahead=60 / rc=crf / mbtree=1 / crf=15.5 / qcomp=0.70 / qpmin=0 / qpmax=69 / qpstep=4 / vbv_maxrate=40000 / vbv_bufsize=30000 / crf_max=0.0 / nal_hrd=none / filler=0 / frame-packing=4 / ip_ratio=1.40 / aq=1:0.70
Language : English
Default : Yes
Forced : No

Audio #1
ID : 2
Format : AC-3
Format/Info : Audio Coding 3
Mode extension : CM (complete main)
Format settings, Endianness : Big
Codec ID : A_AC3
Duration : 2h 5mn
Bit rate mode : Constant
Bit rate : 192 Kbps
Channel(s) : 2 channels
Channel positions : Front: L R
Sampling rate : 48.0 KHz
Frame rate : 31.250 fps (1536 spf)
Compression mode : Lossy
Stream size : 173 MiB (3%)
Title : Дубляж - IPTV
Language : Ukrainian
Default : Yes
Forced : Yes

Audio #2
ID : 3
Format : AC-3
Format/Info : Audio Coding 3
Mode extension : CM (complete main)
Format settings, Endianness : Big
Codec ID : A_AC3
Duration : 2h 5mn
Bit rate mode : Constant
Bit rate : 640 Kbps
Channel(s) : 6 channels
Channel positions : Front: L C R, Side: L R, LFE
Sampling rate : 48.0 KHz
Frame rate : 31.250 fps (1536 spf)
Compression mode : Lossy
Stream size : 575 MiB (9%)
Title : Original - BD 3D
Language : English
Default : No
Forced : No

Text
ID : 4
Format : UTF-8
Codec ID : S_TEXT/UTF8
Codec ID/Info : UTF-8 Plain Text
Title : Full
Language : English
Default : No
Forced : No

Menu
00:00:00.000 : :1
00:07:40.335 : :2
00:14:20.735 : :3
00:20:31.564 : :4
00:27:48.417 : :5
00:34:54.801 : :6
00:41:02.627 : :7
00:46:28.786 : :8
00:53:05.516 : :9
01:01:00.240 : :10
01:08:22.557 : :11
01:14:43.813 : :12
01:21:31.261 : :13
01:31:01.706 : :14
01:38:42.750 : :15
01:45:41.085 : :16
01:52:48.971 : :17
01:58:00.115 : :18
Скріншоти
Джерело:
Особиста оцінка: 8 - мені сподобалося


 Трекер:    Зареєстрований   

Завантажити / скачати фільм українською



відео для новачків



 Зареєстрований:   2016-01-05 13:49
 Розмір:   6.61 GB 
 Оцінка фільму:   8.8/10 (Голосів: 6)
   
Ваш часовий пояс: GMT + 2 Години

Нова тема   Відповісти