Завантажити та скачати торренти українською


Пікселі / Pixels (2015) 1080p 3D Ukr/Eng | Sub Ukr/Eng [HalfOverUnder]

Нові коментарі

Нова тема   Відповісти
Автор Повідомлення
-VipeR- 
VIP


З нами з: 17.07.08
Востаннє: 07.12.16
Повідомлень: 275

2016-01-05 13:22  
Пікселі / Pixels (2015) 1080p 3D Ukr/Eng | Sub Ukr/Eng [HalfOverUnder]

Пікселі / Pixels (2015) 1080p 3D Ukr/Eng | Sub Ukr/Eng [HalfOverUnder]


Жанр: пригодницький, екшн, комедія, фантастика, сімейний
Країна: США, Китай, Канада



Кінокомпанія: 1492 Pictures, Columbia Pictures, Happy Madison Productions, China Film Co.
Режисер: Кріс Коламбус / Chris Columbus
Актори: Адам Сендлер / Adam Sandler, Кевін Джеймс / Kevin James, Мішель Монаґан / Michelle Monaghan, Пітер Дінклейдж / Peter Dinklage, Джош Ґад / Josh Gad, Брайан Кокс / Brian Cox, Ешлі Бенсон / Ashley Benson, Шон Бін / Sean Bean, Джейн Краковскі / Jane Krakowski, Роб Арчер / Rob Archer, Томас МакКарті / Thomas McCarthy, Денніс Акаяма / Dennis Akayama та інші

Сюжет:
Прибульці з космосу помилково трактують тематику комп'ютерних ігор як оголошення їм війни і атакують Землю, використовуючи відеоігри 80-х в якості моделей для різноманітних стратегій вторгнення. Президент країни звертається за допомогою до друга дитинства, чемпіона тих років по грі в автомати Сема Бреннера. Той збирає команду гравців, фахівців з відеоігор, щоб спільно здолати прибульців і врятувати планету...


Тривалість: 01:45:51
Якість: 1080p 3D HalfOverUnder by Ash61
Відео:
кодек:
розмір кадру: 1920 х 1080
бітрейт: 8 509 кб/с

Аудіо # 1:
мова: українська
переклад: професійний дубльований - BD Eur
кодек: 5.1
бітрейт: 640 кб/с

Аудіо # 2:
мова: англійська
переклад: оригінал
кодек: 5.1
бітрейт: 640 кб/с

Джерело озвучення:


Субтитри:
мова: українська
тип: програмні (м'які)
формат: *.srt

Субтитри:
мова: англійська
тип: програмні (м'які)
формат: *.srt
MediaInfo
General
Unique ID : 227950709742356293138098059035751520807 (0xAB7DB5B3BAE3B11EA9A8378806049A27)
Complete name : D:\3D\Художні\Pixels(2015)3D-halfOU(Ash61)\Pixels(2015)3D-halfOU(Ash61) UKR ENG.mkv
Format : Matroska
Format version : Version 4 / Version 2
File size : 7.38 GiB
Duration : 1h 45mn
Overall bit rate : 9 988 Kbps
Movie name : Пиксели / Pixels (2015) в 3Д
Encoded date : UTC 2016-01-05 10:42:42
Writing application : mkvmerge v6.6.0 ('The Edge Of The In Between') built on Dec 18 2013 23:19:42
Writing library : libebml v1.3.0 + libmatroska v1.4.1

Video
ID : 1
Format : AVC
Format/Info : Advanced Video Codec
Format profile : [email protected]
Format settings, CABAC : Yes
Format settings, ReFrames : 4 frames
Codec ID : V_MPEG4/ISO/AVC
Duration : 1h 45mn
Bit rate : 8 509 Kbps
Width : 1 920 pixels
Height : 1 080 pixels
Display aspect ratio : 16:9
Frame rate mode : Constant
Frame rate : 23.976 (24000/1001) fps
Color space : YUV
Chroma subsampling : 4:2:0
Bit depth : 8 bits
Scan type : Progressive
Bits/(Pixel*Frame) : 0.171
Stream size : 6.29 GiB (85%)
Title : by Ash61
Writing library : core 146 r2538 121396c
Encoding settings : cabac=1 / ref=4 / deblock=1:-3:-3 / analyse=0x3:0x113 / me=umh / subme=10 / psy=1 / psy_rd=1.00:0.00 / mixed_ref=1 / me_range=32 / chroma_me=1 / trellis=2 / 8x8dct=1 / cqm=0 / deadzone=21,11 / fast_pskip=1 / chroma_qp_offset=-2 / threads=12 / lookahead_threads=3 / sliced_threads=0 / nr=0 / decimate=1 / interlaced=0 / bluray_compat=0 / constrained_intra=0 / bframes=10 / b_pyramid=2 / b_adapt=2 / b_bias=0 / direct=3 / weightb=1 / open_gop=0 / weightp=2 / keyint=250 / keyint_min=23 / scenecut=40 / intra_refresh=0 / rc_lookahead=60 / rc=crf / mbtree=1 / crf=16.0 / qcomp=0.70 / qpmin=0 / qpmax=69 / qpstep=4 / vbv_maxrate=40000 / vbv_bufsize=30000 / crf_max=0.0 / nal_hrd=none / filler=0 / frame-packing=4 / ip_ratio=1.40 / aq=1:0.70
Language : English
Default : Yes
Forced : No

Audio #1
ID : 2
Format : AC-3
Format/Info : Audio Coding 3
Mode extension : CM (complete main)
Format settings, Endianness : Big
Codec ID : A_AC3
Duration : 1h 45mn
Bit rate mode : Constant
Bit rate : 640 Kbps
Channel(s) : 6 channels
Channel positions : Front: L C R, Side: L R, LFE
Sampling rate : 48.0 KHz
Frame rate : 31.250 fps (1536 spf)
Compression mode : Lossy
Stream size : 485 MiB (6%)
Title : Дубляж - BD Eur
Language : Ukrainian
Default : Yes
Forced : Yes

Audio #2
ID : 3
Format : AC-3
Format/Info : Audio Coding 3
Mode extension : CM (complete main)
Format settings, Endianness : Big
Codec ID : A_AC3
Duration : 1h 45mn
Bit rate mode : Constant
Bit rate : 640 Kbps
Channel(s) : 6 channels
Channel positions : Front: L C R, Side: L R, LFE
Sampling rate : 48.0 KHz
Frame rate : 31.250 fps (1536 spf)
Compression mode : Lossy
Stream size : 485 MiB (6%)
Title : Original - BD 3D
Language : English
Default : No
Forced : No

Text #1
ID : 4
Format : UTF-8
Codec ID : S_TEXT/UTF8
Codec ID/Info : UTF-8 Plain Text
Title : Полные
Language : Ukrainian
Default : No
Forced : No

Text #2
ID : 5
Format : UTF-8
Codec ID : S_TEXT/UTF8
Codec ID/Info : UTF-8 Plain Text
Title : Full
Language : English
Default : No
Forced : No

Menu
00:00:00.000 : :1
00:04:54.043 : :2
00:10:21.662 : :3
00:14:51.764 : :4
00:19:51.815 : :5
00:26:19.868 : :6
00:32:57.808 : :7
00:40:35.474 : :8
00:47:40.481 : :9
00:52:33.275 : :10
00:58:56.074 : :11
01:05:07.695 : :12
01:09:23.074 : :13
01:18:13.020 : :14
01:27:54.185 : :15
01:33:53.002 : :16
Скріншоти
Джерело:
Особиста оцінка: 8 - мені сподобалося


 Трекер:    Зареєстрований   

Завантажити / скачати фільм українською



відео для новачків



 Зареєстрований:   2016-01-05 13:22
 Розмір:   7.38 GB 
 Оцінка фільму:   10/10 (Голосів: 2)
   
Інші релізи
   Пікселі / Pixels (2015) 720p-mini Drool  4 / 0   2.26 GB   2015-11-30 16:53 
   Пікселі / Pixels (2015) AngryBirdsUA  10 / 1   1.46 GB   2015-11-22 11:27 
   Пікселі / Pixels (2015) Ukr/Eng | Sub Ukr/Eng НТН  4 / 0   2.18 GB   2015-11-17 23:37 
   Пікселі / Pixels (2015) Remux 1080p Ukr/Eng | Sub Ukr/Eng Alex60  2 / 0   24.71 GB   2015-10-24 16:45 
   Пікселі / Pixels (2015) AVC Ukr | Sub Ukr/Eng patriot2305  13 / 0   2.03 GB   2015-10-24 08:03 
   Пікселі / Pixels (2015) 1080p Ukr/Eng | Sub Ukr/Eng 11FrYkT  8 / 0   8.28 GB   2015-10-24 07:51 
   Пікселі / Pixels (2015) 720p Ukr/Eng | Sub Ukr/Eng 11FrYkT  1 / 1   4.21 GB   2015-10-24 07:49 
Ваш часовий пояс: GMT + 2 Години

Нова тема   Відповісти