Завантажити та скачати торренти українською


Діти залізниці / Thе Railway Children (1970) 720p Eng | sub Ukr/Eng

Нові коментарі

Нова тема   Відповісти
Автор Повідомлення
yurekkk 
Свій


З нами з: 11.12.12
Востаннє: 10.12.16
Повідомлень: 66

2016-01-04 22:57  
Діти залізниці / Thе Railway Children (1970) 720p Eng | sub Ukr/Eng



Жанр: Драма, сімейний
Країна: Велика Британія



Кінокомпанія: EMI Films
Режисер: Лайонел Джеффріс (Lionel Jeffries)
Актори: Дженні Аґаттер (Jenny Agutter), Селлі Томсет (Sally Thomset), Ґері Воррен (Gary Warren), Діна Шерідан (Dinah Sheridan), Ієн Касбертсон (Iain Cuthbertson), Бернард Кріббінс (Bernard Cribbins), Пітер Бромілов (Peter Bromilow), Вільям Мервін (William Mervyn)

Сюжет:
Після того як батька забрали невідомі, життя Роберти, Філіс і Пітера докорінно змінюється. Їхня мати продає розкішний будинок у місті, й переїжджає разом із дітьми до невеликого йоркширського села. Малі лишаються без служниць і звичного комфорту, а також знайомляться із бідністю. Втім, усі незручності компенсують чарівна природа навколишніх місць і нова розвага — залізниця. Біля останньої герої стрічки проводять майже весь вільний час. Там з Боббі, Філом і Пітом відбувається безліч карколомних пригод. А ще, одного дня, вони зустрічають загадкового старого добродія, котрий допоможе знайти тата.


Тривалість: 01:54:00
Якість: 720p
Відео:
розмір кадру: 1184х720
кодек: AVC
бітрейт: 5 243 кб/с

Аудіо:
мова: англійська
переклад: оригінал
кодек: AC-3 2ch
бітрейт: 256 кб/с

Субтитри:
мова: українська
тип: програмні (м'які)
формат: *.srt
переклад: yurekkk з англійської

Субтитри:
мова: англійська
тип: програмні (м'які)
формат: *.srt
Скріншоти
MediaInfo
Unique ID: 225344115062004471404509416715540904126 (0xA987B2A98130CF00874B1F8FFAA638BE)
Complete name: D:\Розібрати\Фільми\The.Railway.Children.1970.720p.BluRay.FLAC.-PublicHD\The Railway Children. 1970. ua subs.mkv
Format: Matroska
Format version: Version 2
File size: 4.37 GiB
Duration: 1h 54mn
Overall bit rate: 5 490 Kbps
Encoded date: UTC 2016-01-06 08:41:55
Writing application: mkvmerge v5.6.0 ('Kenya Kane') built on May 27 2012 16:44:04
Writing library: libebml v1.2.3 + libmatroska v1.3.0

ID: 1
Format: AVC
Format/Info: Advanced Video Codec
Format profile: [email protected]
Format settings, CABAC: Yes
Format settings, ReFrames: 5 frames
Codec ID: V_MPEG4/ISO/AVC
Duration: 1h 54mn
Bit rate: 5 243 Kbps
Width: 1 184 pixels
Height: 720 pixels
Display aspect ratio: 16:10
Frame rate mode: Constant
Frame rate: 24.000 fps
Color space: YUV
Chroma subsampling: 4:2:0
Bit depth: 8 bits
Scan type: Progressive
Bits/(Pixel*Frame): 0.256
Stream size: 4.08 GiB (93%)
Writing library: core 93 r1542 5b86182
Encoding settings: cabac=1 / ref=5 / deblock=1:0:0 / analyse=0x3:0x133 / me=umh / subme=7 / psy=1 / psy_rd=1.00:0.00 / mixed_ref=1 / me_range=16 / chroma_me=1 / trellis=1 / 8x8dct=1 / cqm=0 / deadzone=21,11 / fast_pskip=0 / chroma_qp_offset=-2 / threads=6 / sliced_threads=0 / nr=0 / decimate=1 / interlaced=0 / constrained_intra=0 / bframes=3 / b_pyramid=2 / b_adapt=1 / b_bias=0 / direct=1 / wpredb=1 / wpredp=2 / keyint=250 / keyint_min=25 / scenecut=40 / intra_refresh=0 / rc_lookahead=40 / rc=2pass / mbtree=1 / bitrate=5243 / ratetol=1.0 / qcomp=0.60 / qpmin=10 / qpmax=51 / qpstep=4 / cplxblur=20.0 / qblur=0.5 / ip_ratio=1.40 / aq=1:1.00
Language: English
Default: No
Forced: No

ID: 2
Format: AC-3
Format/Info: Audio Coding 3
Mode extension: CM (complete main)
Format settings, Endianness: Big
Codec ID: A_AC3
Duration: 1h 54mn
Bit rate mode: Constant
Bit rate: 256 Kbps
Channel(s): 2 channels
Channel positions: Front: L R
Sampling rate: 48.0 KHz
Frame rate: 31.250 fps (1536 spf)
Compression mode: Lossy
Stream size: 209 MiB (5%)
Language: English
Default: Yes
Forced: No

ID: 3
Format: UTF-8
Codec ID: S_TEXT/UTF8
Codec ID/Info: UTF-8 Plain Text
Language: Ukrainian
Default: Yes
Forced: Yes

ID: 4
Format: UTF-8
Codec ID: S_TEXT/UTF8
Codec ID/Info: UTF-8 Plain Text
Language: English
Default: No
Forced: No
Особиста оцінка: 10 - без зайвих вагань рекомендую всім!


Золотий реліз (завантажене не впливає на рейтинг)
 Трекер:    Зареєстрований   

Завантажити / скачати фільм українською



відео для новачків



 Зареєстрований:   2016-01-06 11:14
 Розмір:   4.37 GB 
 Оцінка фільму:   10/10 (Голосів: 7)
   
kino. 
Модератор відео


З нами з: 27.06.10
Востаннє: 10.12.16
Повідомлень: 2900

2016-01-05 06:10  
yurekkk написано:
Muxing mode: Header stripping

У файлах .mkv повинна бути вимкнена функція Header stripping, чого субтитри окремо?

yurekkk 
Свій


З нами з: 11.12.12
Востаннє: 10.12.16
Повідомлень: 66

2016-01-06 11:15  
kino.
Вшив субтири й вимкнув header stripping.

Хобею 
Поважний учасник


З нами з: 30.11.08
Востаннє: 10.12.16
Повідомлень: 207

2016-01-08 21:48  
суперовий фільм, не зважайте на 1970 рік.
І переклад гарний

Andrii_77 
Новенький


З нами з: 05.01.15
Востаннє: 03.12.16
Повідомлень: 5

2016-01-23 12:48  
Згоден, філм дуже душевний. Рекомендую!
yurekkk 
Свій


З нами з: 11.12.12
Востаннє: 10.12.16
Повідомлень: 66

2016-01-23 20:45  
Andrii_77
По правді, я ще не бачив жодного поганого англійського фільму. Вміють знімати.

dreamer 
VIP


З нами з: 10.05.08
Востаннє: 08.12.16
Повідомлень: 305

2016-01-25 12:34  
гарний фільм.правда дивився без субтитрів,мовою оригіналу..була тільки ця доріжка...але отримав багато позитиву..10 з 10
Ваш часовий пояс: GMT + 2 Години

Нова тема   Відповісти