Завантажити та скачати торренти українською


Прогулянка висотою / The Walk (2015) 1080p 3D Ukr/Eng | Sub Ukr/Eng [Half OverUnder]

Нові коментарі

Нова тема   Відповісти
Автор Повідомлення
-VipeR- 
VIP


З нами з: 17.07.08
Востаннє: 04.12.16
Повідомлень: 275

2016-01-04 16:45  
Прогулянка висотою / The Walk (2015) 1080p 3D Ukr/Eng | Sub Ukr/Eng [Half OverUnder]

Прогулянка висотою / The Walk (2015) 1080p 3D Ukr/Eng | Sub Ukr/Eng [Half OverUnder]


Жанр: пригодницький, біографічний, драма
Країна: США



Кінокомпанія: ImageMovers, Mel's Cite du Cinema, Sony Pictures Entertainment (SPE)
Режисер: Роберт Земекіс
Актори: Джозеф Ґордон-Левіт, Шарлотта Ле Бон, Бен Кінґслі, Стів Валентайн, Джеймс Бедж Дейл, Бен Шварц, Бенедикт Семюел, Деніел Аррош, Джейсон Делайн

Сюжет:
Ви боїтеся висоти? А можете уявити, що Ви йдете по натягнутому канату на висоті більше 400 метрів без будь-якої страховки? Потоки вітру обдувають вас, а внизу - місто і тисячі схвильованих поглядів, спрямованих вгору. Це історія про те, як французький канатоходець Філіп Петі наважився здійснити легендарний трюк - пройти без страховки по канату, натягнутому між хмарочосами в Нью-Йорку.


Тривалість: 02:03:09
Якість: 1080p 3D [Half OverUnder]
Відео:
кодек:
розмір кадру: 1920x1080
бітрейт: 10,2 Мбіт/с

Аудіо # 1:
мова: українська
переклад: професійний дубльований
кодек: 2.0
бітрейт: 192 кбіт/с

Аудіо # 2:
мова: англійська
переклад: оригінал
кодек: 5.1
бітрейт: 448 кбіт/с

Джерело озвучення:


Субтитри # 1-2:
мова: українська (форсовані, повні)
тип: програмні (м'які)
формат: *.srt

Субтитри # 3:
мова: англійська
тип: програмні (м'які)
формат: *.srt
MediaInfo
General
Unique ID : 245015256303003481880562622998347788339 (0xB85438CE15137EBDA70809FF045C3033)
Complete name : D:\3D\Художні\The Walk (2015) [Ukr.Eng] [Sub Ukr.Eng] [Hurtom] 3D.mkv
Format : Matroska
Format version : Version 4 / Version 2
File size : 9.54 GiB
Duration : 2h 3mn
Overall bit rate : 11.1 Mbps
Movie name : WALK__THE_–.Title1
Encoded date : UTC 2016-01-03 14:42:51
Writing application : mkvmerge v6.6.0 ('The Edge Of The In Between') built on Dec 18 2013 23:19:42
Writing library : libebml v1.3.0 + libmatroska v1.4.1
Attachments : poster.jpg

Video
ID : 1
Format : AVC
Format/Info : Advanced Video Codec
Format profile : [email protected]
Format settings, CABAC : Yes
Format settings, ReFrames : 4 frames
Codec ID : V_MPEG4/ISO/AVC
Duration : 2h 3mn
Bit rate : 10.2 Mbps
Width : 1 920 pixels
Height : 1 080 pixels
Display aspect ratio : 16:9
Frame rate mode : Constant
Frame rate : 23.976 (24000/1001) fps
Color space : YUV
Chroma subsampling : 4:2:0
Bit depth : 8 bits
Scan type : Progressive
Bits/(Pixel*Frame) : 0.206
Stream size : 8.80 GiB (92%)
Writing library : core 142
Encoding settings : cabac=1 / ref=4 / deblock=1:-3:-3 / analyse=0x3:0x133 / me=umh / subme=9 / psy=1 / psy_rd=1.00:0.20 / mixed_ref=1 / me_range=16 / chroma_me=1 / trellis=2 / 8x8dct=1 / cqm=0 / deadzone=21,11 / fast_pskip=1 / chroma_qp_offset=-3 / threads=4 / lookahead_threads=1 / sliced_threads=0 / nr=0 / decimate=1 / interlaced=0 / bluray_compat=0 / constrained_intra=0 / bframes=6 / b_pyramid=0 / b_adapt=2 / b_bias=0 / direct=1 / weightb=1 / open_gop=0 / weightp=2 / keyint=24 / keyint_min=13 / scenecut=40 / intra_refresh=0 / rc=crf / mbtree=0 / crf=19.0 / qcomp=0.60 / qpmin=0 / qpmax=69 / qpstep=4 / ip_ratio=1.40 / pb_ratio=1.30 / aq=1:1.00
Default : Yes
Forced : No
Color range : Limited
Color primaries : BT.709
Transfer characteristics : BT.709
Matrix coefficients : BT.709

Audio #1
ID : 2
Format : AC-3
Format/Info : Audio Coding 3
Mode extension : CM (complete main)
Format settings, Endianness : Big
Codec ID : A_AC3
Duration : 2h 3mn
Bit rate mode : Constant
Bit rate : 192 Kbps
Channel(s) : 2 channels
Channel positions : Front: L R
Sampling rate : 48.0 KHz
Frame rate : 31.250 fps (1536 spf)
Compression mode : Lossy
Stream size : 169 MiB (2%)
Language : Ukrainian
Default : Yes
Forced : Yes
Statistics Tags Issue : mkvmerge v7.8.0 ('River Man') 32bit built on Apr 3 2015 12:11:22 2015-12-20 12:56:53 / mkvmerge v6.6.0 ('The Edge Of The In Between') built on Dec 18 2013 23:19:42 2016-01-03 14:42:51
FromStats_BitRate : 192000
FromStats_Duration : 02:03:11.392000000
FromStats_FrameCount : 230981
FromStats_StreamSize : 177393408

Audio #2
ID : 3
Format : AC-3
Format/Info : Audio Coding 3
Mode extension : CM (complete main)
Format settings, Endianness : Big
Codec ID : A_AC3
Duration : 2h 3mn
Bit rate mode : Constant
Bit rate : 448 Kbps
Channel(s) : 6 channels
Channel positions : Front: L C R, Side: L R, LFE
Sampling rate : 48.0 KHz
Frame rate : 31.250 fps (1536 spf)
Compression mode : Lossy
Delay relative to video : 78ms
Stream size : 395 MiB (4%)
Language : English
Default : No
Forced : No
Statistics Tags Issue : mkvmerge v7.8.0 ('River Man') 32bit built on Apr 3 2015 12:11:22 2015-12-20 12:56:53 / mkvmerge v6.6.0 ('The Edge Of The In Between') built on Dec 18 2013 23:19:42 2016-01-03 14:42:51
FromStats_BitRate : 448000
FromStats_Duration : 02:03:11.392000000
FromStats_FrameCount : 230981
FromStats_StreamSize : 413917952

Text #1
ID : 4
Format : UTF-8
Codec ID : S_TEXT/UTF8
Codec ID/Info : UTF-8 Plain Text
Title : Forced
Language : Ukrainian
Default : Yes
Forced : No
Statistics Tags Issue : mkvmerge v7.8.0 ('River Man') 32bit built on Apr 3 2015 12:11:22 2015-12-20 12:56:53 / mkvmerge v6.6.0 ('The Edge Of The In Between') built on Dec 18 2013 23:19:42 2016-01-03 14:42:51
FromStats_BitRate : 6
FromStats_Duration : 01:47:51.347000000
FromStats_FrameCount : 117
FromStats_StreamSize : 5038

Text #2
ID : 5
Format : UTF-8
Codec ID : S_TEXT/UTF8
Codec ID/Info : UTF-8 Plain Text
Language : Ukrainian
Default : No
Forced : No
Statistics Tags Issue : mkvmerge v7.8.0 ('River Man') 32bit built on Apr 3 2015 12:11:22 2015-12-20 12:56:53 / mkvmerge v6.6.0 ('The Edge Of The In Between') built on Dec 18 2013 23:19:42 2016-01-03 14:42:51
FromStats_BitRate : 98
FromStats_Duration : 01:54:04.167000000
FromStats_FrameCount : 1497
FromStats_StreamSize : 84221

Text #3
ID : 6
Format : UTF-8
Codec ID : S_TEXT/UTF8
Codec ID/Info : UTF-8 Plain Text
Language : English
Default : No
Forced : No
Statistics Tags Issue : mkvmerge v7.8.0 ('River Man') 32bit built on Apr 3 2015 12:11:22 2015-12-20 12:56:53 / mkvmerge v6.6.0 ('The Edge Of The In Between') built on Dec 18 2013 23:19:42 2016-01-03 14:42:51
FromStats_BitRate : 62
FromStats_Duration : 01:53:57.891000000
FromStats_FrameCount : 1516
FromStats_StreamSize : 53748
Скріншоти
Джерело: & Rip by Ash61
Особиста оцінка: 8 - мені сподобалося


 Трекер:    Зареєстрований   

Завантажити / скачати фільм українською



відео для новачків



 Зареєстрований:   2016-01-04 16:45
 Розмір:   9.54 GB 
 Оцінка фільму:   9.7/10 (Голосів: 7)
   
Erder 
Новенький


З нами з: 11.10.09
Востаннє: 29.11.16
Повідомлень: 1

2016-01-08 22:50  
Плеєр відтворює відео той самий кадр один над одним. Як зробити нормально?
igor911 
Відео Гуртом
Відео Гуртом


З нами з: 18.01.08
Востаннє: 04.12.16
Повідомлень: 5127

2016-01-08 23:16  
Erder, нормально треба уважно читати, що вантажиш. Це 3Д реліз для перегляду на 3Д обладнанні.
-VipeR- 
VIP


З нами з: 17.07.08
Востаннє: 04.12.16
Повідомлень: 275

2016-01-09 14:58  
Erder написано:
Плеєр відтворює відео той самий кадр один над одним. Як зробити нормально?

Якщо у вас 3D телевізор на пульті натисніть кнопку 3D (або налаштування "Ефект 3D" і виберіть порядок кадрів.

Ваш часовий пояс: GMT + 2 Години

Нова тема   Відповісти