Завантажити та скачати торренти українською


Kroda - Навій схрон (2015) [FLAC] | Ambient / Atmospheric Black Metal

Нові коментарі

Нова тема   Відповісти
Автор Повідомлення
kolpavel 
VIP


З нами з: 04.05.14
Востаннє: 02.12.16
Повідомлень: 1059

2016-01-04 00:53  
Kroda - Навій схрон (2015) [FLAC] | Ambient / Atmospheric Black Metal

Kroda - Навій схрон (2015) [FLAC] | Ambient / Atmospheric Black Metal


Стиль: Ambient / Atmospheric Black Metal
Країна, місто: Україна, Львів
Сайти: Офіційний сайт
Видавець: Purity Through Fire (№ за каталогом: PTF 040)
Виконавці:
Eisenslav - вокал
One of Thorns - бас
Khladogard - гітара
Clin - клавішні
Jotunhammer - ударні
Пісні:
    1. Жухлим листям поховане
    2. Тумани загубленої землі
    3. Чортові скелі
    4. Біла крейда, чорна труна...
    5. Тисячі очей нічних сестер
    6. Біснувата
    7. Мертвомарення
    8. Колір культури прадавніх
    9. Под знамёнами рогатого князя (Nokturnal Mortum cover)

Тривалість: 00:57:36
Мова: інструментал (1-6), українська (7-8), російська (9)
Аудіо-кодек: FLAC
Бітрейт: 736 кб/с
Джерело: трекер
Додаткова інформація:
(.CUE)
REM DISCID 6D0D7F09
REM COMMENT "ExactAudioCopy v1.1"
PERFORMER "Kroda"
TITLE "Naviy Skhron"
FILE "Kroda - Naviy Skhron.flac" WAVE
TRACK 01 AUDIO
TITLE "Buried With Fallen Leaves"
PERFORMER "Kroda"
INDEX 01 00:00:00
TRACK 02 AUDIO
TITLE "Reusmarkt's Mist"
PERFORMER "Kroda"
INDEX 01 06:40:65
TRACK 03 AUDIO
TITLE "Devil's Cliffs"
PERFORMER "Kroda"
INDEX 01 14:05:57
TRACK 04 AUDIO
TITLE "Pale Chalk 'n' Dark Coffin"
PERFORMER "Kroda"
INDEX 01 19:25:44
TRACK 05 AUDIO
TITLE "Thousand Eyes of Celestial Sisters"
PERFORMER "Kroda"
INDEX 01 29:10:61
TRACK 06 AUDIO
TITLE "Possessed"
PERFORMER "Kroda"
INDEX 01 36:08:02
TRACK 07 AUDIO
TITLE "Necrotrans"
PERFORMER "Kroda"
INDEX 01 41:24:06
TRACK 08 AUDIO
TITLE "Colour of Ancient's Culture"
PERFORMER "Kroda"
INDEX 01 45:08:41
TRACK 09 AUDIO
TITLE "Under The Banners of Horned Knjaz (Nokturnal Mortum cover)"
PERFORMER "Kroda"
INDEX 01 52:04:07
EAC
Exact Audio Copy V1.1 from 23. June 2015

EAC extraction logfile from 23. December 2015, 22:48

Kroda / Naviy Skhron

Used drive : PIONEER DVD-RW DVR-111D Adapter: 1 ID: 0

Read mode : Secure
Utilize accurate stream : Yes
Defeat audio cache : Yes
Make use of C2 pointers : No

Read offset correction : 48
Overread into Lead-In and Lead-Out : No
Fill up missing offset samples with silence : Yes
Delete leading and trailing silent blocks : No
Null samples used in CRC calculations : Yes
Used interface : Native Win32 interface for Win NT & 2000

Used output format : User Defined Encoder
Selected bitrate : 1024 kBit/s
Quality : High
Add ID3 tag : No
Command line compressor : C:\Program Files (x86)\Exact Audio Copy\Flac\flac.exe
Additional command line options : -V -8 -T "Date=%year%" -T "Genre=%genre%" %source%

TOC of the extracted CD

Track | Start | Length | Start sector | End sector
---------------------------------------------------------
1 | 0:00.00 | 6:40.65 | 0 | 30064
2 | 6:40.65 | 7:24.67 | 30065 | 63431
3 | 14:05.57 | 5:19.62 | 63432 | 87418
4 | 19:25.44 | 9:45.17 | 87419 | 131310
5 | 29:10.61 | 6:57.16 | 131311 | 162601
6 | 36:08.02 | 5:16.04 | 162602 | 186305
7 | 41:24.06 | 3:44.35 | 186306 | 203140
8 | 45:08.41 | 6:55.41 | 203141 | 234306
9 | 52:04.07 | 5:31.42 | 234307 | 259173

Range status and errors

Selected range

Filename E:\EAC rips\Kroda - Naviy Skhron.wav

Peak level 97.7 %
Extraction speed 7.2 X
Range quality 100.0 %
Test CRC 4FBC3587
Copy CRC 4FBC3587
Copy OK

No errors occurred

AccurateRip summary

Track 1 not present in database
Track 2 not present in database
Track 3 not present in database
Track 4 not present in database
Track 5 not present in database
Track 6 not present in database
Track 7 not present in database
Track 8 not present in database
Track 9 not present in database

None of the tracks are present in the AccurateRip database

End of status report

---- CUETools DB Plugin V2.1.6

[CTDB TOCID: hll85ZU._ItQsyklZeDtkbobVPs-] disk not present in database
Submit result: hll85ZU._ItQsyklZeDtkbobVPs- has been uploaded

==== Log checksum F6351F108D69430639BF33D774A4C2D102F249D90581B951B56C9BA68D3B00A5 ====


Якщо Ви справді бажаєте підтримати українське - після прослуховування, якщо музика вам сподобалась, придбайте ліцензійний диск. Підтримаймо вітчизняних виконавців!


Срібний реліз (на рейтинг впливає 50% завантаженого)
 Трекер:    Зареєстрований   

Завантажити / скачати українську музику



відео для новачків



 Зареєстрований:   2016-01-04 00:53
 Розмір:   363 MB 
 Оцінка музики:   10/10 (Голосів: 7)
   
kolpavel 
VIP


З нами з: 04.05.14
Востаннє: 02.12.16
Повідомлень: 1059

2016-01-04 00:58  
Ваш часовий пояс: GMT + 2 Години

Нова тема   Відповісти