Завантажити та скачати торренти українською


VA - Українські народні пісні під гітару [Золота колекція] (2008) [APE] | Folk

Нові коментарі

Нова тема   Відповісти
Автор Повідомлення
civ 
VIP


З нами з: 16.02.11
Востаннє: 04.12.16
Повідомлень: 429

2016-01-03 21:19  
VA - Українські народні пісні під гітару [Золота колекція] (2008) [APE] | Folk

VA - Українські народні пісні під гітару [Золота колекція] (2008) [APE] | Folk


Стиль: Folk
Країна, місто: Україна
Видавець: Астра Рекордс (A.R. 051-08)
Виконавці:
Вказано потреково
Пісні:
    01. Била мене мати - Тріо сестер Книш
    02. Несе Галя воду - Тріо Маренич
    03. Ой, у вишневому садочку - Ансамбль «Чарівна»
    04. Як ніч мя покриє - ВІА «Львівські музики»
    05. Чом ти не прийшов - Тріо Маренич
    06. Вечір надворі - Володимир Турець
    07. Гиля, гиля, сірі гуси - Тріо «Либідь»
    08. Ой, під вишнею - Тріо Маренич
    09. Ой, біда, подруженьки - ВІА «Львівські музики»
    10. Місяць і зіроньки - Тріо Маренич
    11. Ой, чия ж то крайня хатка - Павло Дворський
    12. Ой, у полі нивка - Наталя Ятченко, Олег Павлишин
    13. Козаче - Вокальний дует «Барвінок»
    14. Голуб на черешні - Дует «Іван та Марічка»
    15. Ой, гойя, гойя - Вокальне тріо «Либідь»
    16. Налетіли журавлі - Тріо Маренич
    17. Щебетала пташечка - Лідія Наумова
    18. Вже сонце низенько - Тріо Маренич
    19. Сумний день - ВІА «Львівські музики»
    20. Ой, зацвіла рожа - Тетяна Дук (Асатурян)
    21. Ой, устану я в понеділок - Тетяна Дук (Асатурян)
    22. Ой, там на горі - Тріо Маренич

Тривалість: 01:09:26
Мова: українська
Аудіо-кодек: APE
Бітрейт: 612 кб/с
Джерело: власний ріп
EAC log

Exact Audio Copy V1.0 beta 3 from 29. August 2011

EAC extraction logfile from 18. November 2013, 20:36

Various / Українські народні пісні під гітару [Золота колекція]

Used drive : MATSHITADVD-RAM UJ8C1 Adapter: 1 ID: 0

Read mode : Secure
Utilize accurate stream : Yes
Defeat audio cache : Yes
Make use of C2 pointers : No

Read offset correction : 6
Overread into Lead-In and Lead-Out : No
Fill up missing offset samples with silence : Yes
Delete leading and trailing silent blocks : No
Null samples used in CRC calculations : Yes
Used interface : Native Win32 interface for Win NT & 2000

Used output format : Internal WAV Routines
Sample format : 44.100 Hz; 16 Bit; Stereo

TOC of the extracted CD

Track | Start | Length | Start sector | End sector
---------------------------------------------------------
1 | 0:00.00 | 1:50.03 | 0 | 8252
2 | 1:50.03 | 3:47.27 | 8253 | 25304
3 | 5:37.30 | 1:48.07 | 25305 | 33411
4 | 7:25.37 | 4:25.24 | 33412 | 53310
5 | 11:50.61 | 3:48.04 | 53311 | 70414
6 | 15:38.65 | 3:09.01 | 70415 | 84590
7 | 18:47.66 | 4:01.02 | 84591 | 102667
8 | 22:48.68 | 2:07.04 | 102668 | 112196
9 | 24:55.72 | 3:55.06 | 112197 | 129827
10 | 28:51.03 | 2:14.03 | 129828 | 139880
11 | 31:05.06 | 2:17.03 | 139881 | 150158
12 | 33:22.09 | 2:43.07 | 150159 | 162390
13 | 36:05.16 | 3:07.01 | 162391 | 176416
14 | 39:12.17 | 2:35.04 | 176417 | 188045
15 | 41:47.21 | 4:04.02 | 188046 | 206347
16 | 45:51.23 | 5:09.11 | 206348 | 229533
17 | 51:00.34 | 0:54.06 | 229534 | 233589
18 | 51:54.40 | 3:34.27 | 233590 | 249666
19 | 55:28.67 | 2:28.02 | 249667 | 260768
20 | 57:56.69 | 4:30.03 | 260769 | 281021
21 | 62:26.72 | 3:51.02 | 281022 | 298348
22 | 66:17.74 | 3:07.73 | 298349 | 312446

Range status and errors

Selected range

Filename C:\Music\Обідране\Various - Українські народні пісні під гітару [Золота колекція] (2008)\Various - Українські народні пісні під гітару [Золота колекція].wav

Peak level 94.8 %
Extraction speed 4.2 X
Range quality 99.9 %
Copy CRC 60D457F0
Copy OK

No errors occurred

AccurateRip summary

Track 1 not present in database
Track 2 not present in database
Track 3 not present in database
Track 4 not present in database
Track 5 not present in database
Track 6 not present in database
Track 7 not present in database
Track 8 not present in database
Track 9 not present in database
Track 10 not present in database
Track 11 not present in database
Track 12 not present in database
Track 13 not present in database
Track 14 not present in database
Track 15 not present in database
Track 16 not present in database
Track 17 not present in database
Track 18 not present in database
Track 19 not present in database
Track 20 not present in database
Track 21 not present in database
Track 22 not present in database

None of the tracks are present in the AccurateRip database

End of status report
Audiochecker

fooCDtect - foobar2000 + auCDtect, baralgin.

auCDtect: CD records authenticity detector, version 0.8.2
Copyright (c) 2004 Oleg Berngardt. All rights reserved.
Copyright (c) 2004 Alexander Djourik. All rights reserved.

mode: 0

===========================================
Track: 01. Била мене мати
Quality: CDDA 86%
===========================================
Track: 02. Несе Галя воду
Quality: CDDA 100%
===========================================
Track: 03. Ой, у вишневому садочку
Quality: CDDA 100%
===========================================
Track: 04. Як ніч мя покриє
Quality: CDDA 99%
===========================================
Track: 05. Чом ти не прийшов
Quality: CDDA 100%
===========================================
Track: 06. Вечір надворі
Quality: CDDA 92%
===========================================
Track: 07. Гиля, гиля, сірі гуси
Quality: CDDA 62%
===========================================
Track: 08. Ой, під вишнею
Quality: CDDA 100%
===========================================
Track: 09. Ой, біда, подруженьки
Quality: CDDA 42%
===========================================
Track: 10. Місяць і зіроньки
Quality: CDDA 100%
===========================================
Track: 11. Ой, чия ж то крайня хатка
Quality: CDDA 100%
===========================================
Track: 12. Ой, у полі нивка
Quality: MPEG 99%
===========================================
Track: 13. Козаче
Quality: CDDA 99%
===========================================
Track: 14. Голуб на черешні
Quality: CDDA 100%
===========================================
Track: 15. Ой, гойя, гойя
Quality: CDDA 100%
===========================================
Track: 16. Налетіли журавлі
Quality: CDDA 87%
===========================================
Track: 17. Щебетала пташечка
Quality: CDDA 94%
===========================================
Track: 18. Вже сонце низенько
Quality: CDDA 100%
===========================================
Track: 19. Сумний день
Quality: CDDA 100%
===========================================
Track: 20. Ой, зацвіла рожа
Quality: CDDA 100%
===========================================
Track: 21. Ой, устану я в понеділок
Quality: CDDA 100%
===========================================
Track: 22. Ой, там на горі
Quality: CDDA 100%
===========================================
Додаткова інформація:
Перша асоціація, яку викликає назва цієї збірки – звичайно ж, тріо Мареничів. Зрештою, і справедливо – тож не дивно, що чималу частину платівки складають пісні саме у їхньому виконанні. Та хотілося б про інше: дехто вважає, що явище українського романсу в нашій культурі висвітлено не надто добре. Але ж це не означає, що явища не було – а ця платівка наочно демонструє, що матеріалу для досліджень вистачає. І представлені тут народні пісні можна й варто розглядати як відгалуження романсу – оскільки музична складова є не повторенням народних мелодій, а їхньою авторською обробкою. У такому вигляді пісні призначалися, скажімо так, для камерно-концертного виконання. Це не виключає, звичайно, "побутового вживання" – але естетика виникає вже дещо інша. І нам здається, що саме така естетика визначає приналежність тої чи іншої пісні до царини романсової – а текст відіграє у цьому сенсі менш важливу роль. З подібною точкою зору можна сперечатися, само собою. Але, принаймні, завдяки таким платівкам, як ось ця, незаперечним виглядає інше: що українські романси – надзвичайно гарна, тонка річ, варта уваги і поваги.




Якщо Ви справді бажаєте підтримати українське - після прослуховування, якщо музика вам сподобалась, придбайте ліцензійний диск. Підтримаймо вітчизняних виконавців!


Срібний реліз (на рейтинг впливає 50% завантаженого)
 Трекер:    Зареєстрований   

Завантажити / скачати українську музику



відео для новачків



 Зареєстрований:   2016-01-03 21:20
 Розмір:   350 MB 
 Оцінка музики:   10/10 (Голосів: 10)
   
Gybalj 
Свій


З нами з: 14.05.09
Востаннє: 04.12.16
Повідомлень: 51

2016-05-12 09:40  
Станьте хтось на роздачу! Дякую!
Ваш часовий пояс: GMT + 2 Години

Нова тема   Відповісти