Завантажити та скачати торренти українською


Пен: подорож до Небувалії / Pan (2015) 1080p 3D Ukr/Eng | Sub Ukr/Eng [Half OverUnder]

Нові коментарі

Нова тема   Відповісти
Автор Повідомлення
famous37 
Відео Гуртом - фільмокрай
Відео Гуртом - фільмокрай


З нами з: 16.11.08
Востаннє: 11.12.16
Повідомлень: 556

2016-01-03 20:26  
Пен: подорож до Небувалії / Pan (2015) 1080p 3D Ukr/Eng | Sub Ukr/Eng [Half OverUnder]

Пен: подорож до Небувалії / Pan (2015) 1080p 3D Ukr/Eng | Sub Ukr/Eng [Half OverUnder]


Жанр: пригодницький, сімейний, фентезі
Країна: США, Велика Британія, Австралія



Кінокомпанія: Warner Bros., RatPac-Dune Entertainment, Berlanti Productions
Режисер: Джо Райт
Актори: Г'ю Джекмен, Леві Міллер, Ґаррет Гедлунд, Руні Мара, Аділь Ахтар, Нонсо Анозі, Аманда Сайфред, Кеті Берк, Льюїс МакДуґалл, Кара Делевін, Джек Чарльз, Бронсон Вебб, Майк Шеперд, Браян Бовелл, Курт Еґіаван, Джиммі Ві, Пол Гантер, Спенсер Відлінґ, Дін Нолан та інші

Сюжет:
Всі ми знаємо, хто такий Пітер Пен, але ця казка готова розкрити нові сторони своєї історії. Хлопчик Пітер, який жив у притулку для сиріт, не завжди був тим, яким ми його знаємо. Перш, ніж стати безстрашним героєм, йому довелося пережити безліч небезпечних пригод, коли він несподівано для себе потрапив у Небувалію. Його вкрав пірат Чорна Борода, який переслідує свої цілі, для яких потрібна армія маленьких хлопчиків. І далеко не для добрих справ. Це новий погляд на культову книгу Дж. М. Баррі, який подарує вам і дітям масу незабутніх емоцій і вражень.


Тривалість: 01:51:55
Якість:
Відео:
кодек:
розмір кадру: 1920 х 1080
бітрейт: 11.6 мб/с

Аудіо # 1:
мова: українська
переклад: професійний дубльований
кодек: 2.0
бітрейт: 192 кб/с

Аудіо # 2:
мова: англійська
переклад: оригінал
кодек: 5.1
бітрейт: 640 кб/с

Субтитри 1:
мова: українська (форсовані)
тип: програмні (м'які)
формат: *.srt

Субтитри 2-3:
мова: англійська (повні, SDH)
тип: програмні (м'які)
формат: *.srt
MediaInfo
General
Unique ID : 247835602433766885191303496666550711572 (0xBA73669AE90BEDB3A12042A561013514)
Complete name : D:\Фільми\Фантастика\Pan (2015) 1080p 3D [Ukr,Eng] by famous37 [Hurtom].mkv
Format : Matroska
Format version : Version 4 / Version 2
File size : 9.88 GiB
Duration : 1h 51mn
Overall bit rate : 12.7 Mbps
Movie name : Pan (2015) 1080p 3D [Ukr,Eng] by famous37 [Hurtom]
Encoded date : UTC 2016-01-03 17:59:45
Writing application : mkvmerge v8.6.1 ('Flying') 64bit
Writing library : libebml v1.3.3 + libmatroska v1.4.4
DURATION : 01:50:48.683000000
NUMBER_OF_FRAMES : 1473
NUMBER_OF_BYTES : 37656
_STATISTICS_WRITING_APP : mkvmerge v8.6.1 ('Flying') 64bit
_STATISTICS_WRITING_DATE_UT : 2016-01-03 17:59:45
_STATISTICS_TAGS : BPS DURATION NUMBER_OF_FRAMES NUMBER_OF_BYTES

Video
ID : 1
Format : AVC
Format/Info : Advanced Video Codec
Format profile : [email protected]
Format settings, CABAC : Yes
Format settings, ReFrames : 4 frames
Codec ID : V_MPEG4/ISO/AVC
Duration : 1h 51mn
Bit rate : 11.6 Mbps
Width : 1 920 pixels
Height : 1 080 pixels
Display aspect ratio : 16:9
Frame rate mode : Constant
Frame rate : 23.976 fps
Color space : YUV
Chroma subsampling : 4:2:0
Bit depth : 8 bits
Scan type : Progressive
Bits/(Pixel*Frame) : 0.233
Stream size : 9.03 GiB (91%)
Title : Pan (2015) 1080p 3D [Ukr,Eng] by famous37 [Hurtom]
Writing library : core 146 r2538 121396c
Encoding settings : cabac=1 / ref=4 / deblock=1:-3:-3 / analyse=0x3:0x113 / me=umh / subme=10 / psy=1 / psy_rd=1.00:0.00 / mixed_ref=1 / me_range=32 / chroma_me=1 / trellis=2 / 8x8dct=1 / cqm=0 / deadzone=21,11 / fast_pskip=1 / chroma_qp_offset=-2 / threads=12 / lookahead_threads=2 / sliced_threads=0 / nr=0 / decimate=1 / interlaced=0 / bluray_compat=0 / constrained_intra=0 / bframes=9 / b_pyramid=2 / b_adapt=2 / b_bias=0 / direct=3 / weightb=1 / open_gop=0 / weightp=2 / keyint=250 / keyint_min=23 / scenecut=40 / intra_refresh=0 / rc_lookahead=60 / rc=crf / mbtree=1 / crf=16.0 / qcomp=0.70 / qpmin=0 / qpmax=69 / qpstep=4 / vbv_maxrate=40000 / vbv_bufsize=30000 / crf_max=0.0 / nal_hrd=none / filler=0 / frame-packing=4 / ip_ratio=1.40 / aq=1:0.70
Language : Ukrainian
Default : Yes
Forced : No
DURATION : 01:51:32.186000000
NUMBER_OF_FRAMES : 160452
NUMBER_OF_BYTES : 9910071276
_STATISTICS_WRITING_APP : mkvmerge v8.6.1 ('Flying') 64bit
_STATISTICS_WRITING_DATE_UT : 2016-01-03 17:59:45
_STATISTICS_TAGS : BPS DURATION NUMBER_OF_FRAMES NUMBER_OF_BYTES

Audio #1
ID : 2
Format : AC-3
Format/Info : Audio Coding 3
Format profile : Dolby Digital
Mode extension : CM (complete main)
Format settings, Endianness : Big
Codec ID : A_AC3
Duration : 1h 51mn
Bit rate mode : Constant
Bit rate : 192 Kbps
Channel(s) : 2 channels
Channel positions : Front: L R
Sampling rate : 48.0 KHz
Compression mode : Lossy
Stream size : 153 MiB (2%)
Title : Український дубляж - iTunes
Language : Ukrainian
Default : Yes
Forced : No

Audio #2
ID : 3
Format : AC-3
Format/Info : Audio Coding 3
Mode extension : CM (complete main)
Format settings, Endianness : Big
Codec ID : A_AC3
Duration : 1h 51mn
Bit rate mode : Constant
Bit rate : 640 Kbps
Channel(s) : 6 channels
Channel positions : Front: L C R, Side: L R, LFE
Sampling rate : 48.0 KHz
Compression mode : Lossy
Stream size : 511 MiB (5%)
Title : Original
Language : English
Default : No
Forced : No

Text #1
ID : 4
Format : UTF-8
Codec ID : S_TEXT/UTF8
Codec ID/Info : UTF-8 Plain Text
Title : Форсовані
Language : Ukrainian
Default : Yes
Forced : No

Text #2
ID : 5
Format : UTF-8
Codec ID : S_TEXT/UTF8
Codec ID/Info : UTF-8 Plain Text
Title : Full
Language : English
Default : No
Forced : No

Text #3
ID : 6
Format : UTF-8
Codec ID : S_TEXT/UTF8
Codec ID/Info : UTF-8 Plain Text
Title : SDH
Language : English
Default : No
Forced : No

Menu
00:00:00.000 : :1
00:10:28.419 : :2
00:19:45.851 : :3
00:31:07.282 : :4
00:39:14.060 : :5
00:48:27.863 : :6
01:00:07.562 : :7
01:09:29.374 : :8
01:20:12.808 : :9
01:30:02.897 : :10
01:39:51.027 : :11
01:43:05.888 : :12
Скріншоти
Особиста оцінка: 10 - без зайвих вагань рекомендую всім!

Відео виконане у форматі 3D! Для перегляду потрібні спеціальні окуляри та стереоплеєр або телевізор з підтримкою технології 3D!

Вертикальна стереопара (Above/Below)

Представляє собою два зображення, розташовані одне над одним. Перегляд можливий тільки в спеціальному плеєрі, що перетворює зображення для перегляду з будь-яким типом стерео-окулярів.

Фільм зроблено у Native 3D

Native 3D - це повноцінне тривимірне зображення, яке формується за допомогою 3D камер. Таким чином, глибина і природність зображення у такому форматі, як правило, значно краща.






Список Blu-Ray 3D і 3D DVD фільмів

УВАГА!
Даний фільм наданий вам виключно для ознайомлення. Усі права на конкретний фільм належать його правовласникам. Якщо ви завантажили цей фільм, то мається на увазі, що ви придбали ліцензійний диск або ж вилучите цей продукт після ознайомлення. За правопорушення, пов'язані з неліцензованим використанням, наданої в роздачі продукції, ніхто і ніякої відповідальності не несе.


 Трекер:    Зареєстрований   

Завантажити / скачати фільм українською



відео для новачків



 Зареєстрований:   2016-01-03 20:26
 Розмір:   9.88 GB 
 Оцінка фільму:   9.3/10 (Голосів: 10)
   
Інші релізи
drogoby4 
Новенький


З нами з: 18.10.12
Востаннє: 10.12.16
Повідомлень: 16

2016-01-03 23:58  
дякую вам дуже,вже не міг дочекатись на 3D
lloyd1 
Новенький


З нами з: 10.12.12
Востаннє: 04.12.16
Повідомлень: 1

2016-01-10 17:09  
Поміняй в назві тип 3D на [Half OverUnder]
я вже засмутився, що з укр доріжкою доведеться самому робити, але перевірив скріни - ВОНО !

jloohatik 
Новенький


З нами з: 10.09.11
Востаннє: 07.12.16
Повідомлень: 19

2016-05-09 11:58  
На перших хвилинах фільму думав шо буде надто передбачувано і скучно, але фільм видався досить цікавим і веселим
Ваш часовий пояс: GMT + 2 Години

Нова тема   Відповісти