Завантажити та скачати торренти українською


Марсіянин / The Martian (2015) 1080p 3D Ukr/Eng | Sub Ukr/Eng [Half SideBySide]

Нові коментарі

Нова тема   Відповісти
Автор Повідомлення
-VipeR- 
VIP


З нами з: 17.07.08
Востаннє: 09.12.16
Повідомлень: 275

2016-01-03 15:16  
Марсіянин / The Martian (2015) 1080p 3D Ukr/Eng | Sub Ukr/Eng [Half SideBySide]

Марсіянин / The Martian (2015) 1080p 3D Ukr/Eng | Sub Ukr/Eng [Half SideBySide]


Жанр: фантастика, пригодницький, драма
Країна: США, Великобританія



Кінокомпанія: Twentieth Century Fox Film Corporation, TSG Entertainment, Scott Free Productions
Режисер: Рідлі Скотт / Ridley Scott
Актори: Метт Деймон / Matt Damon, Джесіка Честейн / Jessica Chastain, Крістен Віґ / Kristen Wiig, Джеф Деніелс / Jeff Daniels, Майкл Пенья / Michael Peña, Шон Бін / Sean Bean, Кейт Мара / Kate Mara, Себастьян Стен / Sebastian Stan, Чіветел Еджіофор / Chiwetel Ejiofor, Маккензі Девіс / Mackenzie Davis, Дональд Ґловер / Donald Glover та інші

Сюжет:
Марк Вотні - один з членів експедиції "Арес-3" на Марс. Щоб уникнути загибелі людей під час лютої бурі, було прийнято рішення всю місію евакуювати. Однак не всі встигли вчасно покинути червону планету. На Землі прийшли до висновку, що Марк Вотні трагічно загинув під час сильної бурі, хоча насправді він живий. У нього найважча місія в історії людства: вижити на чужій планеті одному, з обмеженою кількістю продуктів і без можливості зв'язатися з домом. До наступної місії на Марс потрібно чекати як мінімум чотири роки. Марку доведеться використовувати всю свою кмітливість і навички, щоб не тільки повідомити про те, що він не помер, але і постаратися зберегти своє життя...


Тривалість: 02:21:38
Якість: 1080p 3D [Half SideBySide] by ASH61
Відео:
кодек:
розмір кадру: 1920х1080
бітрейт: 12.2 Mbps

Аудіо # 1:
мова: українська
переклад: професійний дубльований
кодек: 2.0 (стерео)
бітрейт: 192 кб/с

Аудіо # 2:
мова: англійська
переклад: оригінал
кодек: 5.1
бітрейт: 640 кб/с

Джерело озвучення:


Субтитри # 1-2:
мова: українська (форсовані, повні)
тип: програмні (м'які)
формат: *.srt

Субтитри # 3:
мова: англійська
тип: програмні (м'які)
формат: *.srt
MediaInfo
General
Unique ID : 200942973433144767659282351258880153378 (0x972C357EB96F74938D9AC497773B9722)
Complete name : D:\3D\Художні\TheMartian(2015)3D-halfOU(Ash61)iTunes Ukr Eng\TheMartian(2015)3D-halfOU(Ash61)iTunes Ukr Eng.mkv
Format : Matroska
Format version : Version 4 / Version 2
File size : 13.1 GiB
Duration : 2h 21mn
Overall bit rate : 13.3 Mbps
Movie name : Марсианин / The Martian (2015) в 3Д
Encoded date : UTC 2016-01-03 14:46:32
Writing application : mkvmerge v6.6.0 ('The Edge Of The In Between') built on Dec 18 2013 23:19:42
Writing library : libebml v1.3.0 + libmatroska v1.4.1

Video
ID : 1
Format : AVC
Format/Info : Advanced Video Codec
Format profile : [email protected]
Format settings, CABAC : Yes
Format settings, ReFrames : 4 frames
Codec ID : V_MPEG4/ISO/AVC
Duration : 2h 21mn
Bit rate : 12.2 Mbps
Width : 1 920 pixels
Height : 1 080 pixels
Display aspect ratio : 16:9
Frame rate mode : Constant
Frame rate : 23.976 (24000/1001) fps
Color space : YUV
Chroma subsampling : 4:2:0
Bit depth : 8 bits
Scan type : Progressive
Bits/(Pixel*Frame) : 0.245
Stream size : 12.0 GiB (92%)
Title : by Ash61
Writing library : core 146 r2538 121396c
Encoding settings : cabac=1 / ref=4 / deblock=1:-3:-3 / analyse=0x3:0x113 / me=umh / subme=10 / psy=1 / psy_rd=1.00:0.00 / mixed_ref=1 / me_range=32 / chroma_me=1 / trellis=2 / 8x8dct=1 / cqm=0 / deadzone=21,11 / fast_pskip=1 / chroma_qp_offset=-2 / threads=12 / lookahead_threads=3 / sliced_threads=0 / nr=0 / decimate=1 / interlaced=0 / bluray_compat=0 / constrained_intra=0 / bframes=11 / b_pyramid=2 / b_adapt=2 / b_bias=0 / direct=3 / weightb=1 / open_gop=0 / weightp=2 / keyint=250 / keyint_min=23 / scenecut=40 / intra_refresh=0 / rc_lookahead=60 / rc=crf / mbtree=1 / crf=15.5 / qcomp=0.70 / qpmin=0 / qpmax=69 / qpstep=4 / vbv_maxrate=40000 / vbv_bufsize=30000 / crf_max=0.0 / nal_hrd=none / filler=0 / frame-packing=4 / ip_ratio=1.40 / aq=1:0.70
Language : English
Default : Yes
Forced : No

Audio #1
ID : 2
Format : AC-3
Format/Info : Audio Coding 3
Mode extension : CM (complete main)
Format settings, Endianness : Big
Codec ID : A_AC3
Duration : 2h 21mn
Bit rate mode : Constant
Bit rate : 192 Kbps
Channel(s) : 2 channels
Channel positions : Front: L R
Sampling rate : 48.0 KHz
Frame rate : 31.250 fps (1536 spf)
Compression mode : Lossy
Stream size : 194 MiB (1%)
Title : Дубляж - iTunes
Language : Ukrainian
Default : Yes
Forced : Yes

Audio #2
ID : 3
Format : AC-3
Format/Info : Audio Coding 3
Mode extension : CM (complete main)
Format settings, Endianness : Big
Codec ID : A_AC3
Duration : 2h 21mn
Bit rate mode : Constant
Bit rate : 640 Kbps
Channel(s) : 6 channels
Channel positions : Front: L C R, Side: L R, LFE
Sampling rate : 48.0 KHz
Frame rate : 31.250 fps (1536 spf)
Compression mode : Lossy
Stream size : 648 MiB (5%)
Title : Original - BD 3D
Language : English
Default : No
Forced : No

Text #1
ID : 4
Format : UTF-8
Codec ID : S_TEXT/UTF8
Codec ID/Info : UTF-8 Plain Text
Title : Форсированные
Language : Ukrainian
Default : Yes
Forced : No

Text #2
ID : 5
Format : UTF-8
Codec ID : S_TEXT/UTF8
Codec ID/Info : UTF-8 Plain Text
Title : Полные
Language : Ukrainian
Default : No
Forced : No

Text #3
ID : 6
Format : UTF-8
Codec ID : S_TEXT/UTF8
Codec ID/Info : UTF-8 Plain Text
Title : Full
Language : English
Default : No
Forced : No

Menu
00:00:00.000 : :1
00:03:22.284 : :2
00:10:08.982 : :3
00:15:24.590 : :4
00:18:25.186 : :5
00:21:34.375 : :6
00:24:28.090 : :7
00:28:52.689 : :8
00:31:36.644 : :9
00:34:21.099 : :10
00:39:13.434 : :11
00:41:21.769 : :12
00:46:23.530 : :13
00:49:25.086 : :14
00:56:15.746 : :15
00:59:40.492 : :16
01:02:23.822 : :17
01:06:53.134 : :18
01:09:52.979 : :19
01:13:51.301 : :20
01:18:38.255 : :21
01:22:52.466 : :22
01:30:41.269 : :23
01:37:30.094 : :24
01:43:31.997 : :25
01:46:16.286 : :26
01:50:18.737 : :27
01:54:07.966 : :28
01:57:49.311 : :29
02:04:41.681 : :30
02:11:05.731 : :31
02:13:28.792 : :32
Скріншоти
Джерело:
Особиста оцінка: 8 - мені сподобалося


 Трекер:    Зареєстрований   

Завантажити / скачати фільм українською



відео для новачків



 Зареєстрований:   2016-01-03 17:25
 Розмір:   13.13 GB 
 Оцінка фільму:   9.6/10 (Голосів: 17)
   
Інші релізи
   Марсіянин / The Martian (2015) 720p-mini (60 fps) Drool  8 / 0   5.54 GB   2016-01-19 13:49 
   Марсіянин / The Martian (2015) AVC Ukr/Eng | Sub Ukr/Eng BASTERD-94  49 / 0   2.91 GB   2016-01-13 22:30 
   Марсіянин / The Martian (2015) Remux 1080p Ukr/Eng | Sub Ukr/Eng famous37  6 / 2   32.09 GB   2016-01-13 20:14 
   Марсіянин / The Martian (2015) 720p-mini Drool  10 / 1   2.63 GB   2016-01-12 23:01 
   Марсіянин / The Martian (2015) 1080p Ukr/Eng | Sub Ukr/Eng 11FrYkT  10 / 0   16.09 GB   2016-01-09 23:04 
   Марсіянин / The Martian (2015) 720p Ukr/Eng | Sub Ukr/Eng 11FrYkT  32 / 2   7.09 GB   2016-01-09 22:46 
   Марсіянин / The Martian (2015) Ukr/Eng | Sub Ukr/Eng Gelios  63 / 0   2.18 GB   2016-01-09 22:40 
bodanua 
Новенький


З нами з: 01.03.15
Востаннє: 13.11.16
Повідомлень: 12

2016-01-04 13:03  
3D клас.дякую
Double Trouble 
Свій


З нами з: 19.07.14
Востаннє: 09.12.16
Повідомлень: 90

2016-01-04 15:12  
дякую, обов'язково стягну
_sergius 
Свій


З нами з: 26.03.11
Востаннє: 07.12.16
Повідомлень: 66

2016-01-07 14:33  
Супер! Нарешті. А то вже давно не було нічого якісно в 3D з укр. озвучкою.
kmif 
Свій


З нами з: 18.07.09
Востаннє: 24.11.16
Повідомлень: 64

2016-01-16 22:52  
народ
як це переглядати на OS Android телевізорі?? Поможіть пліз

igor911 
Відео Гуртом
Відео Гуртом


З нами з: 18.01.08
Востаннє: 09.12.16
Повідомлень: 5202

2016-01-16 22:56  
kmif, потрібно, щоб телевізор підтримував 3D.
dimaxer 
Новенький


З нами з: 27.05.11
Востаннє: 14.11.16
Повідомлень: 1

2016-02-14 01:43  
Круто. В мене працює! Happy
Ваш часовий пояс: GMT + 2 Години

Нова тема   Відповісти