Завантажити та скачати торренти українською


Пережити Різдво / Surviving Christmas (2004) Remux 1080p 2xUkr/Eng | sub Ukr

Нові коментарі

Нова тема   Відповісти
Автор Повідомлення
demotyvator 
Частий відвідувач


З нами з: 24.02.12
Востаннє: 11.12.16
Повідомлень: 35

2016-01-02 13:49  
Пережити Різдво / Surviving Christmas (2004) Remux 1080p 2xUkr/Eng | sub Ukr

Пережити Різдво / Surviving Christmas (2004) Remux 1080p 2xUkr/Eng | sub Ukr

«Розділіть теплоту»


Жанр: комедія, романтичний
Країна: США



Кінокомпанія: DreamWorks SKG, Tall Trees Productions, LivePlanet
Режисер: Майк Мітчел (Mike Mitchell)
Актори: Бен Аффлек (Ben Affleck), Джеймс Гандольфіні (James Gandolfini), Крістіна Епплгейт (Christina Applegate), Кетрін О'Хара (Catherine O'Hara), Джош Цуккерман (Josh Zuckerman), Білл Мейсі (Bill Macy), Дженніфер Моррісон (Jennifer Morrison), Удо Кір (Udo Kier)

Сюжет:
Самотнє рутинне життя багатія Дрю Летама приводить його на Різдво в приміський будинок свого дитинства. І навіть той факт, що будинок заселений тепер іншими людьми, не може зіпсувати Дрю настрій. За солідну винагороду він пропонує сімейці Валко на час стати його ріднею, і сам мріє відзначити свято в їхньому колі. От тільки гроші приваблюють далеко не всіх його нових родичів, та й самі Валко, здається, є рідкісною сімейкою психопатів...


Тривалість: 01:27:00
Якість: Remux 1080p
Відео:
кодек:
розмір кадру: 1920 х 1080
бітрейт: 24.4 Мб/с

Аудіо # 1:
мова: українська
переклад: двоголосий закадровий
кодек: 5.1
бітрейт: 448 кб/с

Аудіо # 2:
мова: українська
переклад: двоголосий закадровий
кодек: 5.1
бітрейт: 448 кб/с

Аудіо # 3:
мова: англійська
переклад: оригінал
кодек: 5.1
бітрейт: 448 кб/с

Субтитри:
мова: українська
тип: програмні (м'які)
формат: *.UTF-8 urij546724
MediaInfo
General
Unique ID : 170912285355500277789428506391976364175 (0x80948242391094C49E0161B54410488F)
Complete name : H:\Surviving Christmas (2004) Remux 1080p [2xUkr,Eng Sub Ukr] [Hurtom] by demotyvator.mkv
Format : Matroska
Format version : Version 2
File size : 16.0 GiB
Duration : 1h 27mn
Overall bit rate mode : Variable
Overall bit rate : 26.3 Mbps
Movie name : Surviving Christmas (2004) Remux.1080p
Encoded date : UTC 2016-01-01 16:01:56
Writing application : mkvmerge v5.6.0 ('Kenya Kane') built on May 27 2012 16:44:04
Writing library : libebml v1.2.3 + libmatroska v1.3.0

Video
ID : 1
Format : AVC
Format/Info : Advanced Video Codec
Format profile : [email protected]
Format settings, CABAC : Yes
Format settings, ReFrames : 2 frames
Codec ID : V_MPEG4/ISO/AVC
Duration : 1h 27mn
Bit rate mode : Variable
Bit rate : 24.4 Mbps
Width : 1 920 pixels
Height : 1 080 pixels
Display aspect ratio : 16:9
Frame rate mode : Constant
Frame rate : 25.000 fps
Original frame rate : 23.976 fps
Color space : YUV
Chroma subsampling : 4:2:0
Bit depth : 8 bits
Scan type : Progressive
Bits/(Pixel*Frame) : 0.471
Stream size : 14.8 GiB (93%)
Title : Surviving Christmas (2004) Remux.1080p
Language : English
Default : Yes
Forced : Yes

Audio #1
ID : 2
Format : AC-3
Format/Info : Audio Coding 3
Mode extension : CM (complete main)
Format settings, Endianness : Big
Codec ID : A_AC3
Duration : 1h 27mn
Bit rate mode : Constant
Bit rate : 448 Kbps
Channel(s) : 6 channels
Channel positions : Front: L C R, Side: L R, LFE
Sampling rate : 48.0 KHz
Compression mode : Lossy
Delay relative to video : 2s 0ms
Stream size : 279 MiB (2%)
Title : Українська доріжка з 1+1
Language : Ukrainian
Default : Yes
Forced : No

Audio #2
ID : 3
Format : AC-3
Format/Info : Audio Coding 3
Mode extension : CM (complete main)
Format settings, Endianness : Big
Codec ID : A_AC3
Duration : 1h 27mn
Bit rate mode : Constant
Bit rate : 448 Kbps
Channel(s) : 6 channels
Channel positions : Front: L C R, Side: L R, LFE
Sampling rate : 48.0 KHz
Compression mode : Lossy
Delay relative to video : 2s 0ms
Stream size : 279 MiB (2%)
Title : Українська доріжка з Нового каналу
Language : Ukrainian
Default : No
Forced : No

Audio #3
ID : 4
Format : AC-3
Format/Info : Audio Coding 3
Mode extension : CM (complete main)
Format settings, Endianness : Big
Codec ID : A_AC3
Duration : 1h 27mn
Bit rate mode : Constant
Bit rate : 448 Kbps
Channel(s) : 6 channels
Channel positions : Front: L C R, Side: L R, LFE
Sampling rate : 48.0 KHz
Compression mode : Lossy
Delay relative to video : 2s 0ms
Stream size : 279 MiB (2%)
Title : Англійська доріжка
Language : English
Default : No
Forced : No

Text
ID : 5
Format : UTF-8
Codec ID : S_TEXT/UTF8
Codec ID/Info : UTF-8 Plain Text
Title : Українські субтитри
Language : Ukrainian
Default : Yes
Forced : No

Menu
00:00:00.000 : :01
00:02:39.576 : :02
00:08:43.356 : :03
00:13:43.113 : :04
00:17:23.292 : :05
00:19:53.817 : :06
00:23:01.213 : :07
00:27:38.156 : :08
00:29:22.510 : :09
00:34:19.807 : :10
00:36:40.907 : :11
00:43:41.618 : :12
00:47:03.654 : :13
00:50:31.445 : :14
00:52:46.580 : :15
00:56:19.834 : :16
01:00:04.726 : :17
01:05:16.871 : :18
01:08:14.840 : :19
01:11:51.265 : :20
01:15:45.123 : :21
01:18:35.252 : :22
01:21:40.061 : :23
01:25:06.309 : :24
Скріншоти





За українські доріжки дякую панам: dvorsky, 4erkov, urij546724.
За українізований постер дякую пану Fanatesky.


Джерело: &
Особиста оцінка: 9 - давно не бачив настільки якісне кіно


Золотий реліз (завантажене не впливає на рейтинг)
 Трекер:    Зареєстрований   

Завантажити / скачати фільм українською



відео для новачків



 Зареєстрований:   2016-01-02 14:57
 Розмір:   15.98 GB 
 Оцінка фільму:   10/10 (Голосів: 5)
   
igor911 
Відео Гуртом
Відео Гуртом


З нами з: 18.01.08
Востаннє: 11.12.16
Повідомлень: 5225

2016-01-02 14:48  
demotyvator написано:
1080p

Тут не ріп, а ремукс. Виправ, будь ласка, оформлення та назву файлу.

demotyvator 
Частий відвідувач


З нами з: 24.02.12
Востаннє: 11.12.16
Повідомлень: 35

2016-01-02 15:04  
Змінив назву.
igor911 
Відео Гуртом
Відео Гуртом


З нами з: 18.01.08
Востаннє: 11.12.16
Повідомлень: 5225

2016-01-02 15:50  
demotyvator, онови, також, медіаінфо.
WorldMaster 
Частий відвідувач


З нами з: 10.10.11
Востаннє: 08.12.16
Повідомлень: 47

2016-01-02 21:59  
Чудова, добра і по-справжньому весела комедія, яка надасть прекрасного настрою на свята. Повний антипод "Страньі ОЗ"(2015) якщо оцінювати по трейлеру останнього, бо навіть від трейлеру Strana OZ з'їдене раніше олів'є відмовилось бути присутнім при його перегляді і попросилось вийти як і зайшло, ледь вмовив втриматись в шлунку.
K2 
Поважний учасник


З нами з: 02.11.08
Востаннє: 10.12.16
Повідомлень: 159

2016-01-02 23:02  
Обов'язково в колекцію.
Хотілося б ще AVC. Можливо хтось планує релізити?

Ваш часовий пояс: GMT + 2 Години

Нова тема   Відповісти