Завантажити та скачати торренти українською


VA - Вір у любов. Золоті пісні від Мирослава (2008) [APE] | Pop

Нові коментарі

Нова тема   Відповісти
Автор Повідомлення
civ 
VIP


З нами з: 16.02.11
Востаннє: 06.12.16
Повідомлень: 429

2016-01-01 23:50  
VA - Вір у любов. Золоті пісні від Мирослава (2008) [APE] | Pop

VA - Вір у любов. Золоті пісні від Мирослава (2008) [APE] | Pop


Стиль: Pop
Країна, місто: Україна
Сайти: Офіційний сайт
Видавець: Мед
Виконавці:
Автор слів: Мирослав Воньо
Виконавці вказані потреково
Пісні:
    01. Михайло Березутський - Вір у любов
    (муз. О.Сердюк, сл. М.Воньо)
    02. Оксана Білозір - Чарівна бойківчанка
    (муз. О.Сердюк, сл. М.Воньо)
    03. Віктор Павлік - Весілля в Карпатах
    (муз. О.Сердюк, сл. М.Воньо)
    04. Рената Довгаліс - І тільки сниться пісня солов’їна
    (муз. Р.Чоланюк, сл. М.Воньо)
    05. Рената Довгаліс - Вір мені
    (муз. Р.Чоланюк, сл. М.Воньо)
    06. Володимир Гуменчук - Козацькому роду нема переводу
    (муз. М.Балема, сл. М.Воньо)
    07. Юрій Гаврилюк - Твоє весілля
    (муз. М.Балема, сл. М.Воньо)
    08. Юрій Гаврилюк - Ой там, на вигоні
    (муз. М.Балема, сл. М.Воньо)
    09. Іван Попович - Здрастуй, рідне село!
    (муз. В.Козупиця, сл. М.Воньо)
    10. Рената Довгаліс - Ріка життя
    (муз. В.Корепанов, сл. М.Воньо)
    11. Володимир Гуменчук, Наталія Мельник - Не треба осені
    (муз. В.Івасюк, сл. М.Воньо)
    12. Анатолій Костенко - Нічна річка
    (муз. В.Корепанов, сл. М.Воньо)
    13. Броніслава Солтисік - Співуча вода
    (муз. О.Злотник, сл. М.Воньо)
    14. Владислав Колесник - Кожна пісня мріє стати шлягером
    (муз. В.Корепанов, сл. М.Воньо)
    15. Юлія Голуб - Я співатиму краще, ніж Тіна
    (муз. Р.Чоланюк, сл. М.Воньо)
    16. Петро Клименко - Найдорожчий друг
    (муз. П.Клименко, сл. М.Воньо)
    17. Рената Довгаліс - Свято
    (муз. В.Корепанов, сл. М.Воньо)

Тривалість: 01:03:54
Мова: українська
Аудіо-кодек: APE
Бітрейт: 863 кб/с
Джерело: власний ріп
EAC log

Exact Audio Copy V1.0 beta 3 from 29. August 2011

EAC extraction logfile from 16. November 2013, 13:58

Various / Вір у любов. Золоті пісні від Мирослава

Used drive : MATSHITADVD-RAM UJ8C1 Adapter: 1 ID: 0

Read mode : Secure
Utilize accurate stream : Yes
Defeat audio cache : Yes
Make use of C2 pointers : No

Read offset correction : 6
Overread into Lead-In and Lead-Out : No
Fill up missing offset samples with silence : Yes
Delete leading and trailing silent blocks : No
Null samples used in CRC calculations : Yes
Used interface : Native Win32 interface for Win NT & 2000

Used output format : Internal WAV Routines
Sample format : 44.100 Hz; 16 Bit; Stereo

TOC of the extracted CD

Track | Start | Length | Start sector | End sector
---------------------------------------------------------
1 | 0:00.00 | 2:59.61 | 0 | 13485
2 | 2:59.61 | 4:11.50 | 13486 | 32360
3 | 7:11.36 | 4:24.25 | 32361 | 52185
4 | 11:35.61 | 4:41.36 | 52186 | 73296
5 | 16:17.22 | 4:44.53 | 73297 | 94649
6 | 21:02.00 | 2:41.39 | 94650 | 106763
7 | 23:43.39 | 3:05.24 | 106764 | 120662
8 | 26:48.63 | 2:49.67 | 120663 | 133404
9 | 29:38.55 | 3:59.55 | 133405 | 151384
10 | 33:38.35 | 4:04.74 | 151385 | 169758
11 | 37:43.34 | 3:25.47 | 169759 | 185180
12 | 41:09.06 | 3:19.36 | 185181 | 200141
13 | 44:28.42 | 3:33.52 | 200142 | 216168
14 | 48:02.19 | 4:32.00 | 216169 | 236568
15 | 52:34.19 | 3:47.62 | 236569 | 253655
16 | 56:22.06 | 3:50.69 | 253656 | 270974
17 | 60:13.00 | 3:41.31 | 270975 | 287580

Range status and errors

Selected range

Filename C:\Music\Обідране\Various - Вір у любов. Золоті пісні від Мирослава (2008)\Various - Вір у любов. Золоті пісні від Мирослава.wav

Suspicious position 1:03:24

Peak level 100.0 %
Extraction speed 2.8 X
Range quality 99.9 %
Copy CRC 27E8D057
Copy finished

There were errors

AccurateRip summary

Track 1 not present in database
Track 2 not present in database
Track 3 not present in database
Track 4 not present in database
Track 5 not present in database
Track 6 not present in database
Track 7 not present in database
Track 8 not present in database
Track 9 not present in database
Track 10 not present in database
Track 11 not present in database
Track 12 not present in database
Track 13 not present in database
Track 14 not present in database
Track 15 not present in database
Track 16 not present in database
Track 17 not present in database

None of the tracks are present in the AccurateRip database

End of status report
Audiochecker

fooCDtect - foobar2000 + auCDtect, baralgin.

auCDtect: CD records authenticity detector, version 0.8.2
Copyright (c) 2004 Oleg Berngardt. All rights reserved.
Copyright (c) 2004 Alexander Djourik. All rights reserved.

mode: 0

===========================================
Track: 01. Вір у любов
Quality: CDDA 100%
===========================================
Track: 02. Чарівна бойківчанка
Quality: MPEG 95%
===========================================
Track: 03. Весілля в Карпатах
Quality: MPEG 95%
===========================================
Track: 04. І тільки сниться пісня солов’їна
Quality: MPEG 95%
===========================================
Track: 05. Вір мені
Quality: CDDA 100%
===========================================
Track: 06. Козацькому роду нема переводу
Quality: CDDA 100%
===========================================
Track: 07. Твоє весілля
Quality: MPEG 95%
===========================================
Track: 08. Ой там, на вигоні
Quality: CDDA 100%
===========================================
Track: 09. Здрастуй, рідне село!
Quality: MPEG 95%
===========================================
Track: 10. Ріка життя
Quality: MPEG 95%
===========================================
Track: 11. Не треба осені
Quality: CDDA 100%
===========================================
Track: 12. Нічна річка
Quality: MPEG 95%
===========================================
Track: 13. Співуча вода
Quality: MPEG 95%
===========================================
Track: 14. Кожна пісня мріє стати шлягером
Quality: CDDA 100%
===========================================
Track: 15. Я співатиму краще, ніж Тіна
Quality: MPEG 95%
===========================================
Track: 16. Найдорожчий друг
Quality: CDDA 100%
===========================================
Track: 17. Свято
Quality: MPEG 95%
===========================================
Додаткова інформація:
Знаючи Мирослава Воньо не один десяток літ, не перестаю дивуватися його величезному творчому потенціалу.

Це поет від Бога. Він знову і знову знаходить нові теми для своїх пісень, які не перестають хвилювати і дивувати. Пісні його завжди юні, красиві, як дівчата, свіжі, як щойно спечений хліб, проникливі, як справжнє почуття любові, природні і правдиві, як саме життя, прості, щирі та відкриті, як його поетична душа. Від цих пісень справді линуть якісь чарівні хвилі, котрі, увійшовши в душу слухача, залишаються там назавжди.

І ще одна особливість його пісень - вони не старіють.

До нового диска увійшли кращі пісні, написані на вірші поета упродовж трьох десятиліть і представлені блискучими естрадними виконавцями України різних поколінь, починаючи від Оксани Білозір аж до Ренати Довгаліс.

Не маю жодного сумніву, що цей диск матиме велику популярність серед шанувальників української естрадної пісні. Хай щастить поетові і цьому диску!

Тетяна Слободянюк, музичний журналіст


Якщо Ви справді бажаєте підтримати українське - після прослуховування, якщо музика вам сподобалась, придбайте ліцензійний диск. Підтримаймо вітчизняних виконавців!


Срібний реліз (на рейтинг впливає 50% завантаженого)
 Трекер:    Зареєстрований   

Завантажити / скачати українську музику



відео для новачків



 Зареєстрований:   2016-01-01 23:50
 Розмір:   430 MB 
 Оцінка музики:   10/10 (Голосів: 3)
   
Ваш часовий пояс: GMT + 2 Години

Нова тема   Відповісти