Завантажити та скачати торренти українською


Ночі Гарлема / Harlem Nights (1989) 720p Ukr/Eng

Нові коментарі

Нова тема   Відповісти
Автор Повідомлення
krigg070 
Відео Гуртом - фільмокрай
Відео Гуртом - фільмокрай


З нами з: 29.10.14
Востаннє: 08.12.16
Повідомлень: 361

2015-12-31 15:32  
Ночі Гарлема / Harlem Nights (1989) 720p Ukr/Eng


Жанр: комедія, бойовик
Країна: США



Кінокомпанія: Eddie Murphy Productions, Paramount Pictures
Режисер: Едді Мерфі
Актори: Едді Мерфі, Річард Прайор, Редд Фокс, Делла Ріс, Майкл Лернер, Дені Айєлло та інші

Сюжет:
Едді Мерфі, найбільш касова зірка року, звичайно ж, знає, як розсмішити публіку. А в гостросюжетній гангстерській комедії про нічний клуб 1938 року доводить, що і кіно знімати вміє. Він - режисер, сценарист і виконавчий продюсер, так що все залежить від нього, а на екрані він грає поважного джентльмена на прізвисько Квік (Шустрик), співвласника нічного клубу "Шугар Рей" (Шугар Рей - Прайор). Коли відомий у певних колах гангстер Багзі Келхун хоче отримати частку в справі, Шустрик і Рей вирішують влаштувати йому таке випробування, яке навряд чи може тому сподобатися.


Тривалість: 01:50:57
Якість:
Відео:
кодек:
розмір кадру: 1 280 х 720
бітрейт: 5 731 кб/с

Аудіо # 1:
мова: українська
переклад: багатоголосий закадровий
кодек: 2.0
бітрейт: 192 кб/с
примітка: є кілька неозвучених фраз

Аудіо # 2:
мова: англійська
переклад: оригінал
кодек: 5.1
бітрейт: 448 кб/с
Скріншоти
MediaInfo
Код:
General
Unique ID                                : 173539976638926003053965058284604024866 (0x828E957103C0EC8BB4F0843162F2E822)
Complete name                            : /media/disk-d/Films/Harlem Nights (1989) 720p [Ukr, Eng] [Hurtom].mkv
Format                                   : Matroska
Format version                           : Version 2
File size                                : 4.94 GiB
Duration                                 : 1h 50mn
Overall bit rate                         : 6 373 Kbps
Encoded date                             : UTC 2015-12-31 11:25:39
Writing application                      : mkvmerge v3.3.0 ('Language') built on Mar 24 2010 14:59:24
Writing library                          : libebml v0.8.0 + libmatroska v0.9.0

Video
ID                                       : 1
Format                                   : AVC
Format/Info                              : Advanced Video Codec
Format profile                           : [email protected]
Format settings, CABAC                   : Yes
Format settings, ReFrames                : 9 frames
Codec ID                                 : V_MPEG4/ISO/AVC
Duration                                 : 1h 50mn
Bit rate                                 : 5 731 Kbps
Width                                    : 1 280 pixels
Height                                   : 720 pixels
Display aspect ratio                     : 16:9
Frame rate mode                          : Constant
Frame rate                               : 25.000 fps
Color space                              : YUV
Chroma subsampling                       : 4:2:0
Bit depth                                : 8 bits
Scan type                                : Progressive
Bits/(Pixel*Frame)                       : 0.249
Stream size                              : 4.34 GiB (88%)
Writing library                          : core 116 r2019 9cc407d
Encoding settings                        : cabac=1 / ref=9 / deblock=1:-3:-3 / analyse=0x3:0x133 / me=umh / subme=10 / psy=1 / psy_rd=1.00:0.00 / mixed_ref=1 / me_range=32 / chroma_me=1 / trellis=2 / 8x8dct=1 / cqm=0 / deadzone=21,11 / fast_pskip=1 / chroma_qp_offset=-2 / threads=6 / sliced_threads=0 / nr=0 / decimate=1 / interlaced=0 / bluray_compat=0 / constrained_intra=0 / bframes=6 / b_pyramid=2 / b_adapt=2 / b_bias=0 / direct=3 / weightb=1 / open_gop=0 / weightp=2 / keyint=250 / keyint_min=25 / scenecut=40 / intra_refresh=0 / rc_lookahead=40 / rc=2pass / mbtree=1 / bitrate=5731 / ratetol=1.0 / qcomp=0.60 / qpmin=10 / qpmax=51 / qpstep=4 / cplxblur=20.0 / qblur=0.5 / vbv_maxrate=50000 / vbv_bufsize=50000 / nal_hrd=none / ip_ratio=1.40 / aq=1:1.00
Language                                 : English
Default                                  : No
Forced                                   : Yes

Audio #1
ID                                       : 2
Format                                   : AC-3
Format/Info                              : Audio Coding 3
Mode extension                           : CM (complete main)
Format settings, Endianness              : Big
Codec ID                                 : A_AC3
Duration                                 : 1h 50mn
Bit rate mode                            : Constant
Bit rate                                 : 192 Kbps
Channel(s)                               : 2 channels
Channel positions                        : Front: L R
Sampling rate                            : 48.0 KHz
Bit depth                                : 16 bits
Compression mode                         : Lossy
Stream size                              : 152 MiB (3%)
Title                                    : 2.0 @ 192 Kbps - Інтер [ukr]
Language                                 : Ukrainian
Default                                  : Yes
Forced                                   : No

Audio #2
ID                                       : 3
Format                                   : AC-3
Format/Info                              : Audio Coding 3
Mode extension                           : CM (complete main)
Format settings, Endianness              : Big
Codec ID                                 : A_AC3
Duration                                 : 1h 50mn
Bit rate mode                            : Constant
Bit rate                                 : 448 Kbps
Channel(s)                               : 6 channels
Channel positions                        : Front: L C R, Side: L R, LFE
Sampling rate                            : 48.0 KHz
Bit depth                                : 16 bits
Compression mode                         : Lossy
Stream size                              : 356 MiB (7%)
Title                                    : 5.1 @ 448 Kbps - оригінал [eng]
Language                                 : English
Default                                  : No
Forced                                   : No

Джерело:
Дякую пану РОМЕО за запис з ТБ
Особиста оцінка: 6 - непогано


Срібний реліз (на рейтинг впливає 50% завантаженого)
 Трекер:    Зареєстрований   

Завантажити / скачати фільм українською



відео для новачків



 Зареєстрований:   2015-12-31 15:32
 Розмір:   4.94 GB 
 Оцінка фільму:   10/10 (Голосів: 1)
   
Інші релізи
   Ночі Гарлема / Harlem Nights (1989) Ukr/Eng Arsenfpu  2 / 0   1.97 GB   2015-12-31 10:23 
Ваш часовий пояс: GMT + 2 Години

Нова тема   Відповісти