Завантажити та скачати торренти українською


Хто там / Knock Knock (2015) AVC Ukr/Eng

Нові коментарі

Нова тема   Відповісти
Автор Повідомлення
Covenant 
Поважний учасник


З нами з: 17.12.15
Востаннє: 10.12.16
Повідомлень: 249

2015-12-31 01:10  
Хто там / Knock Knock (2015) AVC Ukr/Eng

Хто там / Knock Knock (2015) AVC Ukr/Eng


Жанр: трилер, жахи
Країна: США, Чилі



Кінокомпанія: Black Bear Pictures, Camp Grey, Dragonfly Entertainment, Elevated Films (II), Sobras International Pictures
Режисер: Елай Рот
Актори: Кіану Рівз, Лоренца Іззо, Ана Де Армас, Аарон Бернс, Іґнасія Алламанд, Ден Бейлі, Меґан Бейлі, Коллін Кемп, Антоніо Куерча...

Сюжет:
Архітектор і щасливий батько сімейства Еван Веббер залишився вдома один зі своїм собакою Монкі на вихідні. Через травму плеча він не зміг приєднатися до дружини і дітей у поїздці на пляж. Еван вирішив в тиші попрацювати над одним зі своїх проектів, коли йому завадив стук у двері. На порозі будинку опинилися дві молоді дівчини, які шукають адресу вечірки, але, так як телефон розрядився, їм потрібна допомога. Еван вирішує допомогти і дозволяє скористатися інтернетом, а потім викликає таксі, але водій повідомляє, що буде не раніше 45 хвилин. Чи звичайні дівчата потрапили в будинок архітектора? І чи варто відкривати двері незнайомцям?


Тривалість: 01:39:19
Якість: AVC
Відео:
кодек:
розмір кадру: 1024x428
бітрейт: 1742 кб/с

Аудіо # 1:
мова: українська
переклад: багатоголосий закадровий
кодек: 2.0
бітрейт: 192 кб/с

Аудіо # 2:
мова: англійська
переклад: оригінал
кодек: 5.1
бітрейт: 448 кб/с
MediaInfo
Video
ID : 1
Format : AVC
Format/Info : Advanced Video Codec
Format profile : [email protected]
Format settings, CABAC : Yes
Format settings, ReFrames : 10 frames
Codec ID : V_MPEG4/ISO/AVC
Duration : 1h 39mn
Bit rate : 1 742 Kbps
Width : 1 024 pixels
Height : 428 pixels
Display aspect ratio : 2.40:1
Frame rate mode : Constant
Frame rate : 23.976 (24000/1001) fps
Color space : YUV
Chroma subsampling : 4:2:0
Bit depth : 8 bits
Scan type : Progressive
Bits/(Pixel*Frame) : 0.166
Stream size : 1.21 GiB (73%)
Writing library : core 133 r2334 a3ac64b
Encoding settings : cabac=1 / ref=10 / deblock=1:-2:-2 / analyse=0x3:0x113 / me=umh / subme=10 / psy=1 / psy_rd=1.05:0.15 / mixed_ref=1 / me_range=32 / chroma_me=1 / trellis=2 / 8x8dct=1 / cqm=0 / deadzone=21,11 / fast_pskip=0 / chroma_qp_offset=-3 / threads=12 / lookahead_threads=2 / sliced_threads=0 / nr=0 / decimate=0 / interlaced=0 / bluray_compat=0 / constrained_intra=0 / bframes=8 / b_pyramid=2 / b_adapt=2 / b_bias=0 / direct=3 / weightb=1 / open_gop=0 / weightp=2 / keyint=240 / keyint_min=23 / scenecut=40 / intra_refresh=0 / rc_lookahead=40 / rc=2pass / mbtree=0 / bitrate=1742 / ratetol=1.0 / qcomp=0.60 / qpmin=0 / qpmax=51 / qpstep=4 / cplxblur=20.0 / qblur=0.5 / vbv_maxrate=50000 / vbv_bufsize=62500 / nal_hrd=none / ip_ratio=1.40 / pb_ratio=1.30 / aq=1:1.00
Language : English
Default : Yes
Forced : No
Color range : Limited
Color primaries : BT.709
Transfer characteristics : BT.709
Matrix coefficients : BT.709

Audio #1
ID : 2
Format : AC-3
Format/Info : Audio Coding 3
Mode extension : CM (complete main)
Format settings, Endianness : Big
Codec ID : A_AC3
Duration : 1h 39mn
Bit rate mode : Constant
Bit rate : 192 Kbps
Channel(s) : 2 channels
Channel positions : Front: L R
Sampling rate : 48.0 KHz
Frame rate : 31.250 fps (1536 spf)
Compression mode : Lossy
Stream size : 136 MiB (8%)
Title : Ukr-Line Covenant
Language : Ukrainian
Default : Yes
Forced : Yes

Audio #2
ID : 3
Format : AC-3
Format/Info : Audio Coding 3
Mode extension : CM (complete main)
Format settings, Endianness : Big
Codec ID : A_AC3
Duration : 1h 39mn
Bit rate mode : Constant
Bit rate : 448 Kbps
Channel(s) : 6 channels
Channel positions : Front: L C R, Side: L R, LFE
Sampling rate : 48.0 KHz
Frame rate : 31.250 fps (1536 spf)
Compression mode : Lossy
Stream size : 318 MiB (19%)
Language : English
Default : No
Forced : No

Text
ID : 4
Format : UTF-8
Codec ID : S_TEXT/UTF8
Codec ID/Info : UTF-8 Plain Text
Duration : 1h 31mn
Bit rate : 58 bps
Count of elements : 1489
Stream size : 39.0 KiB (0%)
Language : English
Default : No
Forced : No

Menu
00:00:00.000 : en:00:00:00.000
00:06:31.016 : en:00:06:31.016
00:12:59.988 : en:00:12:59.988
00:20:07.248 : en:00:20:07.248
00:27:20.472 : en:00:27:20.472
00:34:42.455 : en:00:34:42.455
00:42:41.934 : en:00:42:41.934
00:52:19.678 : en:00:52:19.678
01:01:50.081 : en:01:01:50.081
01:13:45.796 : en:01:13:45.796
01:25:48.810 : en:01:25:48.810
01:35:01.279 : en:01:35:01.279
Субтитри:
мова: англійська
тип: програмні (м'які)
формат: *.srt
Скріншоти


Джерело:
Особиста оцінка: 0 - не дивився


 Трекер:    Зареєстрований   

Завантажити / скачати фільм українською



відео для новачків



 Зареєстрований:   2015-12-31 02:55
 Розмір:   1.65 GB 
 Оцінка фільму:   7.9/10 (Голосів: 36)
   
Інші релізи
   Хто там / Knock Knock (2015) 1080p Ukr/Eng | Sub Eng ninenine  4 / 0   8.11 GB   2015-12-31 10:49 
   Хто там / Knock Knock (2015) 720p Ukr/Eng | Sub Eng 11FrYkT  8 / 0   5.18 GB   2015-12-31 09:28 
   Хто там / Knock Knock (2015) Covenant  14 / 0   1.45 GB   2015-12-31 02:46 
Covenant 
Поважний учасник


З нами з: 17.12.15
Востаннє: 10.12.16
Повідомлень: 249

2015-12-31 02:55  
Перепрошую . оновив торрент бо назва неправильна , прошу тих хто завантажив чи ще вантажить перейменувати файл на такий Knock Knock (2015) AVC [UKR_ENG] [Hurtom] і після перехешування знову стати на роздачу
GeneralIII 
Новенький


З нами з: 09.03.14
Востаннє: 10.12.16
Повідомлень: 8

2015-12-31 07:18  
Перепрошую, лайн ін якість звуку подібна до мікрофону?
kino. 
Модератор відео


З нами з: 27.06.10
Востаннє: 10.12.16
Повідомлень: 2900

2015-12-31 08:34  
GeneralIII написано:
Перепрошую, лайн ін якість звуку подібна до мікрофону?

ні, це прямий запис із джерела звуку майже як ліценція.

AngryBirdsUA 
Свій


З нами з: 24.02.10
Востаннє: 10.12.16
Повідомлень: 2861

2015-12-31 08:46  
kino. написано:
ні, це прямий запис із джерела звуку майже як ліценція.

Та ну як ліцензія, ти чув який був лайн до місії неможливої?

kino. 
Модератор відео


З нами з: 27.06.10
Востаннє: 10.12.16
Повідомлень: 2900

2015-12-31 09:01  
Vasua95 написано:
Та ну як ліцензія, ти чув який був лайн до місії неможливої?

ні

НТН 
Відео Гуртом - фільмокрай
Відео Гуртом - фільмокрай


З нами з: 25.12.11
Востаннє: 10.11.16
Повідомлень: 2001

2015-12-31 09:03  
А який був страшний Лайн у фільмі Морський бій, просто кошмар.
kill_1 
Свій


З нами з: 11.07.10
Востаннє: 06.12.16
Повідомлень: 74

2015-12-31 17:41  
Яка якість звукової доріжки? Краща ніж в сусідів?
Covenant 
Поважний учасник


З нами з: 17.12.15
Востаннє: 10.12.16
Повідомлень: 249

2015-12-31 17:48  
kill_1 написано:
Яка якість звукової доріжки? Краща ніж в сусідів?

семпл для оцінювання є, натисніть на картинку семпл, завантажте маленький зразок і послухайте

Dellariver 
Свій


З нами з: 14.01.12
Востаннє: 10.12.16
Повідомлень: 127

2015-12-31 18:37  
Дивився заради блондинки.Кеану останім чосом знімається у відстійних фільмах
kill_1 
Свій


З нами з: 11.07.10
Востаннє: 06.12.16
Повідомлень: 74

2015-12-31 18:48  
Covenant
я вибачаюся но там англ. озвучка а я питаю про укр. =(

Covenant 
Поважний учасник


З нами з: 17.12.15
Востаннє: 10.12.16
Повідомлень: 249

2015-12-31 19:05  
kill_1 написано:

Covenant
я вибачаюся но там англ. озвучка а я питаю про укр. =(

в семплі дві доріжки .Основною першою встановлено укр , 2-ю англ .Але схоже у вас плеєр чомусь захоплює першою саме англ, увімкніть в плеєрі на укр в такому випадку

в шапці теми ви можете переглянути MediaInfo і впевнитися що першою є саме українська доріжка

gorodok 
Новенький


З нами з: 31.03.08
Востаннє: 09.12.16
Повідомлень: 21

2016-01-01 08:55  
Не знаю але не зміг додивитися цей фільм. Виключив на половині - Нео і Джон Вік в одній особі який не може справитися з двома сучками? - не для мене!
zhman 
Частий відвідувач


З нами з: 21.12.14
Востаннє: 07.12.16
Повідомлень: 35

2016-01-12 19:10  
важко було той сором споглядати. Мужики не можуть впоратись з якимись дівками!
lavrec 
Новенький


З нами з: 05.02.12
Востаннє: 17.07.16
Повідомлень: 6

2016-01-12 20:21  
Фільм досить посередній. Сюжет слабкий. Ще спочатку зрозуміло чим все закінчиться.
eXteSy- 
VIP


З нами з: 06.04.09
Востаннє: 10.12.16
Повідомлень: 1456

2016-01-27 22:39  
Черговий сюжет про те, як головний герой піддається на маніпуляції і все глибше заборсується в лайно. Однак, як на мене, актори добре справилися зі своїми ролями і дивитися було цікаво навіть незважаючи на досить передбачуваний сюжет.
7/10

Ua.bos_01 
VIP


З нами з: 22.06.15
Востаннє: 06.12.16
Повідомлень: 1291

2016-01-28 00:38  
Цілком розчарований даним фільмом! На жаль, Кіану Рівз, як і ряд інших акторів почали зніматися у другосортних фільмах, з відсутнім змістом, логікою та часто здоровим глуздом. Дана картина переповнена ляпами, елементарною тупістю та своєю нелогічністю. Очікував набагато більшого. Мені фільм не сподобався.
balkolek 
Новенький


З нами з: 09.01.13
Востаннє: 04.12.16
Повідомлень: 3

2016-01-29 23:24  
Згаяний час!
v7mishin 
Новенький


З нами з: 03.09.15
Востаннє: 08.12.16
Повідомлень: 3

2016-01-30 09:09  
Лайно
Ваш часовий пояс: GMT + 2 Години

Нова тема   Відповісти