Завантажити та скачати торренти українською


Інтуїція / Serendipity (2001) Remux 1080p Ukr/Eng | Sub Eng

Нові коментарі

Нова тема   Відповісти
Автор Повідомлення
Гірський Кришталь 
Свій


З нами з: 07.01.09
Востаннє: 06.10.16
Повідомлень: 129

2015-12-30 13:34  
Інтуїція / Serendipity (2001) Remux 1080p Ukr/Eng | Sub Eng

Інтуїція / Serendipity (2001) Remux 1080p Ukr/Eng | Sub Eng


Жанр: мелодрама
Країна: США



Кінокомпанія: Miramax Films, Tapestry Films, Simon Fields Productions
Режисер: Пітер Челсом
Актори: Джон К'юзак, Кейт Бекінсейл, Джеремі Півен, Бріджет Монаган, Джон Корбетт, Моллі Шенон, Юджин Леві

Сюжет:
Одного зимового дня, посеред нью-йоркського натовпу Джонатан зустрів Сару. Дві незнайомі людини в охопленому передноворічною лихоманкою місті відчували, що їх притягує один до одного.
І вони перевіряють долю: він пише свій телефон на 5-доларовій купюрі, вона — у книзі. Купюру розмінюють, а книгу продають букіністу. Джонатан і Сара впевнені, що скоро мають зустрітися знову. А що, коли Доля вирішила пожартувати?


Тривалість: 01:30:58
Якість: Remux
Відео:
кодек: MPEG-4 AVC
розмір кадру: 1920 х 1080
бітрейт: 23.2 Mб/с

Аудіо # 1:
мова: українська
переклад: багатоголосий закадровий
кодек: 5.1
бітрейт: 448 кб/с

Аудіо # 2:
мова: англійська
переклад: оригінал
кодек: -HD MA 5.1
бітрейт: ~1941 кб/с

Субтитри:
мова: англійська
тип: пререндерні
формат: *.pgs

MediaInfo

Video
ID : 1
Format : AVC
Format/Info : Advanced Video Codec
Format profile : [email protected]
Format settings, CABAC : Yes
Format settings, ReFrames : 4 frames
Codec ID : V_MPEG4/ISO/AVC
Duration : 1h 30mn
Bit rate mode : Variable
Bit rate : 23.2 Mbps
Maximum bit rate : 35.0 Mbps
Width : 1 920 pixels
Height : 1 080 pixels
Display aspect ratio : 16:9
Frame rate : 23.976 fps
Standard : NTSC
Color space : YUV
Chroma subsampling : 4:2:0
Bit depth : 8 bits
Scan type : Progressive
Bits/(Pixel*Frame) : 0.468
Stream size : 14.8 GiB (90%)
Color primaries : BT.709-5, BT.1361, IEC 61966-2-4, SMPTE RP177
Transfer characteristics : BT.709-5, BT.1361
Matrix coefficients : BT.709-5, BT.1361, IEC 61966-2-4 709, SMPTE RP177

Audio #1
ID : 2
Format : AC-3
Format/Info : Audio Coding 3
Mode extension : CM (complete main)
Codec ID : A_AC3
Duration : 1h 30mn
Bit rate mode : Constant
Bit rate : 448 Kbps
Channel(s) : 6 channels
Channel positions : Front: L C R, Side: L R, LFE
Sampling rate : 48.0 KHz
Bit depth : 16 bits
Compression mode : Lossy
Stream size : 292 MiB (2%)
Title : 5.1 @ 384 kbps
Language : Ukrainian

Audio #2
ID : 3
Format :
Format/Info : Digital Theater Systems
Format profile : MA / Core
Codec ID : A_DTS
Duration : 1h 30mn
Bit rate mode : Variable
Bit rate : 1 561 Kbps / 1 510 Kbps
Channel(s) : 6 channels
Channel positions : Front: L C R, Side: L R, LFE
Sampling rate : 48.0 KHz
Bit depth : 16 bits
Compression mode : Lossless / Lossy
Title : -HD 5.1 @ 1510 kbps
Language : English

Text
ID : 4
Format : PGS
Muxing mode : zlib
Codec ID : S_HDMV/PGS
Codec ID/Info : The same subtitle format used on BDs/HD-DVDs
Language : English
Скріншоти






Джерело: &

Особиста оцінка: 10 - без зайвих вагань рекомендую всім!


Золотий реліз (завантажене не впливає на рейтинг)
 Трекер:    Зареєстрований   

Завантажити / скачати фільм українською



відео для новачків



 Зареєстрований:   2015-12-30 13:34
 Розмір:   16.37 GB 
 Оцінка фільму:   10/10 (Голосів: 8)
   
Інші релізи
   Інтуїція / Serendipity (2001) AVC Ukr/Eng | Sub Eng Загора  0 / 0   2.47 GB   2016-09-02 11:05 
   Інтуїція / Serendipity (2001) 720p Ukr/Eng | Sub Eng Загора  6 / 0   3.89 GB   2016-09-02 10:46 
   Інтуїція / Serendipity (2001) Ukr/Eng | Sub Eng rooster  22 / 0   1.74 GB   2012-02-21 23:32 
   Інтуїція / Serendipity (2001) SweetN  5 / 0   1.42 GB   2009-06-18 06:28 
igor911 
Відео Гуртом
Відео Гуртом


З нами з: 18.01.08
Востаннє: 03.12.16
Повідомлень: 5123

2015-12-30 21:41  
Гірський Кришталь, згідно Правил скріншоти мають бути у форматі png, виправ, будь ласка.

Додано через 12 хвилин 47 секунд:

Також додам, що на ексі є сирий звук з свіжого (02.01.2015) запису з Інтера.

igor911 
Відео Гуртом
Відео Гуртом


З нами з: 18.01.08
Востаннє: 03.12.16
Повідомлень: 5123

2015-12-31 13:07  
Гірський Кришталь, також виправ бітрейт ориг.звуку

Цитата:
English: 48 kHz/16-bit, -HD MA 5.1, ~1941.00 kbps avg

For_friends_HD 
Новенький


З нами з: 09.09.12
Востаннє: 03.11.16
Повідомлень: 19

2016-01-05 22:42  
У файлі помилка. При відтворенні відео, зависають всі відеоплеєри.
Ваш часовий пояс: GMT + 2 Години

Нова тема   Відповісти