Завантажити та скачати торренти українською


128 ударів серця / We Are Your Friends (2015) 720p Ukr/Eng

Нові коментарі

Нова тема   Відповісти
Автор Повідомлення
Anonymous 







2015-12-22 11:47  
128 ударів серця / We Are Your Friends (2015) 720p Ukr/Eng

128 ударів серця / We Are Your Friends (2015) 720p Ukr/Eng


Жанр: драма, музичний, романтичний
Країна: Великобританія, Франція, США



Кінокомпанія: Polygram Filmed Entertainment, StudioCanal, Working Title Films
Режисер: Макс Джозеф / Max Joseph
Актори: Зак Ефрон / Zac Efron, Вес Бентлі / Wes Bentley, Емілі Ратаковскі / Emily Ratajkowski, Джонні Вестон / Jonny Weston, Шило Фернандес / Shiloh Fernandez, Алекс Шеффер / Alex Shaffer, Джон Бернтал / Jon Bernthal, Алісія Коппола / Alicia Coppola, Вайлі М. Пікетт / Wiley M. Pickett та інші

Сюжет:
Дія фільму розгортається в Голівуді. Двадцятитрирічний діджей на ім'я Коул проводить дні і ночі свого життя в постійній роботі над одним треком, який повинен підірвати весь світ. Все це змінюється, коли він знайомиться з більш досвідченим, хоча і не зовсім здоровим діджеєм Джеймсом, який бере хлопця під своє крило. Незабаром Коул закохується у Софі, дівчину Джеймса, і йому доводиться вибирати між любов'ю, дружбою і своїм майбутнім...


Тривалість: 01:36:03
Якість: 720p
Відео:
кодек:
розмір кадру: 1280 х 688
бітрейт: 5623 кб/с
Аудіо # 1:
мова: українська
переклад: професійний дубльований
кодек: 2.0
бітрейт: 192 кб/с

Аудіо # 2:
мова: англійська
переклад: оригінал
кодек: 5.1
бітрейт: 640 кб/с
MediaInfo
General
Unique ID : 206240381152237233621237349324766319531 (0x9B2873DC4D557F9F9C5AE0E1C89413AB)
Complete name : D:\We Are Your Friends (2015) 720p [Ukr. Eng] [Hurtom].mkv
Format : Matroska
Format version : Version 4 / Version 2
File size : 4.33 GiB
Duration : 1h 36mn
Overall bit rate : 6 455 Kbps
Encoded date : UTC 2015-12-22 09:34:34
Writing application : mkvmerge v7.7.0 ('Six Voices') 32bit built on Feb 28 2015 23:23:00
Writing library : libebml v1.3.1 + libmatroska v1.4.2

Video
ID : 1
Format : AVC
Format/Info : Advanced Video Codec
Format profile : [email protected]
Format settings, CABAC : Yes
Format settings, ReFrames : 9 frames
Codec ID : V_MPEG4/ISO/AVC
Duration : 1h 36mn
Bit rate : 5 623 Kbps
Width : 1 280 pixels
Height : 688 pixels
Display aspect ratio : 1.85:1
Frame rate mode : Constant
Frame rate : 24.000 fps
Color space : YUV
Chroma subsampling : 4:2:0
Bit depth : 8 bits
Scan type : Progressive
Bits/(Pixel*Frame) : 0.266
Stream size : 3.77 GiB (87%)
Writing library : core 148 r2597 e86f3a1
Encoding settings : cabac=1 / ref=9 / deblock=1:-3:-3 / analyse=0x3:0x113 / me=umh / subme=11 / psy=1 / psy_rd=1.05:0.00 / mixed_ref=1 / me_range=48 / chroma_me=1 / trellis=2 / 8x8dct=1 / cqm=0 / deadzone=21,11 / fast_pskip=0 / chroma_qp_offset=-2 / threads=12 / lookahead_threads=2 / sliced_threads=0 / nr=0 / decimate=0 / interlaced=0 / bluray_compat=0 / constrained_intra=0 / bframes=9 / b_pyramid=2 / b_adapt=2 / b_bias=0 / direct=3 / weightb=1 / open_gop=1 / weightp=2 / keyint=240 / keyint_min=23 / scenecut=40 / intra_refresh=0 / rc_lookahead=40 / rc=2pass / mbtree=0 / bitrate=5623 / ratetol=1.0 / qcomp=0.60 / qpmin=0 / qpmax=69 / qpstep=4 / cplxblur=20.0 / qblur=0.5 / vbv_maxrate=50000 / vbv_bufsize=62500 / nal_hrd=none / filler=0 / ip_ratio=1.40 / pb_ratio=1.30 / aq=1:0.80
Language : English
Default : Yes
Forced : No

Audio #1
ID : 2
Format : AC-3
Format/Info : Audio Coding 3
Mode extension : CM (complete main)
Format settings, Endianness : Big
Codec ID : A_AC3
Duration : 1h 35mn
Bit rate mode : Constant
Bit rate : 192 Kbps
Channel(s) : 2 channels
Channel positions : Front: L R
Sampling rate : 48.0 KHz
Frame rate : 31.250 fps (1536 spf)
Compression mode : Lossy
Stream size : 132 MiB (3%)
Language : Ukrainian
Default : Yes
Forced : No

Audio #2
ID : 3
Format : AC-3
Format/Info : Audio Coding 3
Mode extension : CM (complete main)
Format settings, Endianness : Big
Codec ID : A_AC3
Duration : 1h 36mn
Bit rate mode : Constant
Bit rate : 640 Kbps
Channel(s) : 6 channels
Channel positions : Front: L C R, Side: L R, LFE
Sampling rate : 48.0 KHz
Frame rate : 31.250 fps (1536 spf)
Compression mode : Lossy
Stream size : 440 MiB (10%)
Language : English
Default : No
Forced : No


Підтримати купівлю інших фільмів можна тут.


Джерело:


 Трекер:    Зареєстрований   

Завантажити / скачати фільм українською



відео для новачків



 Зареєстрований:   2015-12-22 11:47
 Розмір:   4.33 GB 
 Оцінка фільму:   5.1/10 (Голосів: 27)
   
Інші релізи
   128 ударів серця / We Are Your Friends (2015) AngryBirdsUA  11 / 0   1.45 GB   2015-12-22 11:47 
Bod_zik99 
VIP


З нами з: 28.12.13
Востаннє: 04.12.16
Повідомлень: 820

2015-12-22 15:26  
Дуже вдячний за HD!
A-VORONKIN 
Новенький


З нами з: 12.08.08
Востаннє: 05.12.16
Повідомлень: 12

2015-12-24 12:37  
1080p буде?
Ваш часовий пояс: GMT + 2 Години

Нова тема   Відповісти