Завантажити та скачати торренти українською


Василь Бокоч - ''Ти танго заспівай мені...'' [Пісні Богдана Весоловського] (2015) [FLAC] | Retro Pop

Нові коментарі

Нова тема   Відповісти
Автор Повідомлення
ssTAss 
Модератор музики


З нами з: 05.07.08
Востаннє: 03.12.16
Повідомлень: 10930

2015-12-18 01:09  
Василь Бокоч - ''Ти танго заспівай мені...'' [Пісні Богдана Весоловського] (2015) [FLAC] | Retro Pop

Василь Бокоч - ''Ти танго заспівай мені...'' [Пісні Богдана Весоловського] (2015) [FLAC] | Retro Pop


Стиль: Pop
Країна, місто: Україна, с. Вільхівці Тячівського району Закарпаьскої області
Видавець: Дуліби
Виконавці:
Бокоч Василь Андрійович
Пісні:
    01 - Тихо без слів
    02 - Як тебе не любити
    03 - Лети тужлива пісне
    04 - Чи справді
    05 - Бували дні
    06 - Подай рученьку
    07 - Було не тужити
    08 - Гей-га
    09 - Чи знаєш ти...
    10 - Чар Карпатських гір
    11 - Прийде ще час...
log
Exact Audio Copy V0.99 prebeta 5 from 4. May 2009

Звіт EAC про видобування, котре виконане 18. грудня 2015, 0:35

Василь Бокоч / "Ти танго заспівай мені..."

Дисковод: SlimtypeDVD A DS8A1H Adapter: 1 ID: 0

Режим читання : Точний
Використати точний потік : Так
Вимкнути аудіо кеш : Так
Застосувати мітки C2 : Ні

Корекція зміщення при читанні : 594
Екстрачитання областей Lead-in і Lead-out : Ні
Заповнення пропущених семплів тишею : Так
Видалення блоків з тишею на початку і кінці : Ні
При вирахуванні CRC використовувались нульові семпли : Так
Використаний інтерфейс : 'Рідний' Win32-інтерфейс для Win NT/2000

Застосований вихідний формат : Кодер Користувача
Обраний бітрейт : 1024 kBit/s
Якість : Високий
Додати тег ID3 : Ні
Компресор командного рядка : C:\Program Files\Exact Audio Copy\Flac\flac.exe
Додаткові параметри командного рядка : -8 -V -T "ARTIST=%a" -T "TITLE=%t" -T "ALBUM=%g" -T "DATE=%y" -T "TRACKNUMBER=%n" -T "GENRE=%m" -T "COMMENT=EAC FLAC -8" %s

TOC видобутого CD

Трек | Старт | Довжина | Початковий сектор | Кінцевий сектор
------------------------------------------------------------------
1 | 0:00.00 | 1:57.07 | 0 | 8781
2 | 1:57.07 | 3:41.17 | 8782 | 25373
3 | 5:38.24 | 3:27.56 | 25374 | 40954
4 | 9:06.05 | 3:04.15 | 40955 | 54769
5 | 12:10.20 | 2:26.51 | 54770 | 65770
6 | 14:36.71 | 3:08.37 | 65771 | 79907
7 | 17:45.33 | 3:03.11 | 79908 | 93643
8 | 20:48.44 | 3:35.06 | 93644 | 109774
9 | 24:23.50 | 4:01.03 | 109775 | 127852
10 | 28:24.53 | 3:07.00 | 127853 | 141877
11 | 31:31.53 | 3:14.40 | 141878 | 156467

Статус діапазону і помилки

Обраний діапазон

Ім'я файлу C:\Temp\Rdio\Василь Бокоч - Ти танго заспівай мені....wav

Піковий рівень 67.9 %
Якість діапазону 100.0 %
CRC тесту 5541F6F0
CRC копії 5541F6F0
Копіювання... OK

Помилки не траплялися

Звіт Точного Видобування

Трек 1 не присутнє в базі даних
Трек 2 не присутнє в базі даних
Трек 3 не присутнє в базі даних
Трек 4 не присутнє в базі даних
Трек 5 не присутнє в базі даних
Трек 6 не присутнє в базі даних
Трек 7 не присутнє в базі даних
Трек 8 не присутнє в базі даних
Трек 9 не присутнє в базі даних
Трек 10 не присутнє в базі даних
Трек 11 не присутнє в базі даних

Жодного трека немає в базі AccurateRip

Кінець звіту
fooCDtect
fooCDtect - foobar2000 + auCDtect, baralgin.

auCDtect: CD records authenticity detector, version 0.8.2
Copyright (c) 2004 Oleg Berngardt. All rights reserved.
Copyright (c) 2004 Alexander Djourik. All rights reserved.

mode: 0

===========================================
Track: 01 - Тихо без слів
Quality: CDDA 100%
===========================================
Track: 02 - Як тебе не любити
Quality: CDDA 100%
===========================================
Track: 03 - Лети тужлива пісне
Quality: MPEG 95%
===========================================
Track: 04 - Чи справді
Quality: CDDA 100%
===========================================
Track: 05 - Бували дні
Quality: CDDA 99%
===========================================
Track: 06 - Подай рученьку
Quality: CDDA 100%
===========================================
Track: 07 - Було не тужити
Quality: MPEG 95%
===========================================
Track: 08 - Гей-га
Quality: CDDA 100%
===========================================
Track: 09 - Чи знаєш ти...
Quality: CDDA 100%
===========================================
Track: 10 - Чар Карпатських гір
Quality: CDDA 99%
===========================================
Track: 11 - Прийде ще час...
Quality: CDDA 100%
===========================================
Тривалість: 00:34:46
Мова: українська
Аудіо-кодек: FLAC
Бітрейт: 790 кб/с
Джерело: диск надав володимирко2, ріп власний
Додаткова інформація:
До 100-річчя з дня народження Богдана Весоловського.
Українсько-канадський композитор Богдан Весоловський, або просто Бонді, - батько української естрадної музики, що залишив нащадкам понад 130 пісень і 30 платівок з записами неповторних українських танго, вальсів, бостонів, фокстротів.
Визначний український баритон, народний артист України Василь Бокоч родом із села Вільківці, що на Закарпатті. Закінчив Київську консерваторію ім. П. Чайковського (1973). Як соліст Українського радіо записав сотні творів української та зарубіжної класики, серед них - низку пісень Богдана Весоловського.
Проект Ігоря Осташа


Якщо Ви справді бажаєте підтримати українське - після прослуховування, якщо музика вам сподобалась,
придбайте ліцензійний диск.
Підтримаймо вітчизняних виконавців!


Срібний реліз (на рейтинг впливає 50% завантаженого)
 Трекер:    Зареєстрований   

Завантажити / скачати українську музику



відео для новачків



 Зареєстрований:   2015-12-18 01:09
 Розмір:   231 MB 
 Оцінка музики:   4.3/10 (Голосів: 19)
   
fv007 
VIP


З нами з: 01.01.10
Востаннє: 03.12.16
Повідомлень: 449

2015-12-18 19:37  
а зрозуміло, роздача якраз під Свято Миколая буде Happy Дякуєм.
Valerius94 
Новенький


З нами з: 16.01.14
Востаннє: 14.11.16
Повідомлень: 5

2016-10-16 16:56  
Дуже дякую за доповення колекції, дуже захоплююсь паном Богданом!!! Допоможіть, прошу завантажити.
Ваш часовий пояс: GMT + 2 Години

Нова тема   Відповісти