Завантажити та скачати торренти українською


Христина Соловій - Жива вода (2015) [FLAC] | Pop / Folk

Нові коментарі

Нова тема   Відповісти
Автор Повідомлення
vamp69 
Поважний учасник


З нами з: 06.07.09
Востаннє: 30.11.16
Повідомлень: 173

2015-12-12 21:13  
Христина Соловій - Жива вода (2015) [FLAC] | Pop / Folk


Христина Соловій - Жива вода (2015) [FLAC] | Pop / Folk


Стиль: Folk Pop
Країна, місто: Україна, Львів
Видавець: Суперсиметрія. SUSY RECORDS
Пісні:
    1. Несе Галя воду (3:57)
    2. Янчик (2:41)
    3. Тримай (3:28)
    4. Синя пісня (3:18)
    5. Горе долом (3:58)
    6. Сідит пташок (3:46)
    7. Тиха вода (3:21)
    8. В темну нічку (4:06)
    9. Тече вода каламутна (3:48)
    10. Як ішов я (3:59)
    11. Гамерицкий край (3:40)
    12. Под облачком (4:36)
EAC Log
Exact Audio Copy V1.0 beta 3 from 29. August 2011

EAC extraction logfile from 12. December 2015, 19:58

Христина Соловій / Жива вода

Used drive : ATAPI iHAS124 B Adapter: 4 ID: 0

Read mode : Secure
Utilize accurate stream : Yes
Defeat audio cache : Yes
Make use of C2 pointers : No

Read offset correction : 6
Overread into Lead-In and Lead-Out : No
Fill up missing offset samples with silence : Yes
Delete leading and trailing silent blocks : No
Null samples used in CRC calculations : Yes
Used interface : Native Win32 interface for Win NT & 2000

Used output format : Internal WAV Routines
Sample format : 44.100 Hz; 16 Bit; Stereo

TOC of the extracted CD

Track | Start | Length | Start sector | End sector
---------------------------------------------------------
1 | 0:00.00 | 3:59.06 | 0 | 17930
2 | 3:59.06 | 2:43.13 | 17931 | 30168
3 | 6:42.19 | 3:30.46 | 30169 | 45964
4 | 10:12.65 | 3:20.02 | 45965 | 60966
5 | 13:32.67 | 4:00.26 | 60967 | 78992
6 | 17:33.18 | 3:48.37 | 78993 | 96129
7 | 21:21.55 | 3:23.50 | 96130 | 111404
8 | 24:45.30 | 4:08.34 | 111405 | 130038
9 | 28:53.64 | 3:50.05 | 130039 | 147293
10 | 32:43.69 | 4:01.56 | 147294 | 165424
11 | 36:45.50 | 3:42.22 | 165425 | 182096
12 | 40:27.72 | 4:36.61 | 182097 | 202857

Range status and errors

Selected range

Filename I:\Українська музика\Христина Соловій (2015) Жива вода\Христина Соловій (2015) Жива вода.wav

Peak level 98.6 %
Extraction speed 5.5 X
Range quality 99.9 %
Test CRC 96DBC64C
Copy CRC 96DBC64C
Copy OK

No errors occurred

AccurateRip summary

Track 1 not present in database
Track 2 not present in database
Track 3 not present in database
Track 4 not present in database
Track 5 not present in database
Track 6 not present in database
Track 7 not present in database
Track 8 not present in database
Track 9 not present in database
Track 10 not present in database
Track 11 not present in database
Track 12 not present in database

None of the tracks are present in the AccurateRip database

End of status report

==== Log checksum F51D2A8715DE19F42837CE079EB280A04DD4DE38F24B713CA829C67D64E2E51F ====
Тривалість: 00:45:04
Мова: українська
Аудіо-кодек: FLAC
Бітрейт: 850 кб/с
Джерело: мій СД
Додаткова інформація:
Христина Соловій – українська співачка, володарка магічного голосу, автор більшості своїх пісень, а також виконавиця народних, лемківських пісень в сучасній обробці.


Якщо Ви справді бажаєте підтримати українське - після прослуховування, якщо музика вам сподобалась, придбайте ліцензійний диск. Підтримаймо вітчизняних виконавців!


Срібний реліз (на рейтинг впливає 50% завантаженого)
 Трекер:    Зареєстрований   

Завантажити / скачати українську музику



відео для новачків



 Зареєстрований:   2015-12-12 21:13
 Розмір:   282 MB 
 Оцінка музики:   9.7/10 (Голосів: 39)
   
kolpavel 
VIP


З нами з: 04.05.14
Востаннє: 05.12.16
Повідомлень: 1060

2015-12-13 10:45  
Дочекався i в lossless. Дякую.
danilogal1 
Новенький


З нами з: 20.03.11
Востаннє: 04.12.16
Повідомлень: 19

2015-12-14 18:57  
Дякую! Класно!
teterka 
Новенький


З нами з: 28.12.15
Востаннє: 12.11.16
Повідомлень: 3

2016-03-07 13:41  
Щиро дякую за оффлайн замість https://soundcloud.com/khrystyna-soloviy/sets/2015-1
Надзвичайний голос, рідні пісні!

Не підкажете де знайти інші її чудові пісні:
Чорноморець ( https://soundcloud.com/radioskovoroda/acoustic-live-radio-skovoroda-1 ),
Стежечка ( https://soundcloud.com/radioskovoroda/acoustic-live-radio-skovoroda )
Народився Бог на санях ( http://www.youtube.com/watch?v=rW7pRVR5cYs )?

teterka 
Новенький


З нами з: 28.12.15
Востаннє: 12.11.16
Повідомлень: 3

2016-03-16 20:15  
Диск придбати можна тут: http://umka.com/ukr/catalogue/special-editions/khrystyna-soloviy-zhyva-voda-premium-edition-digi-pack-alive-water.html

Цитую:
Пару років тому Христина Соловій брала участь у пісенному шоу-конкурсі "Голос країни" – і, власне, перемогла. Не в конкурсі. Але в результаті її продюсером став Святослав Вакарчук – а це теж важить. Відео на її авторську пісню "Тримай" – стало тихою сенсацією, та й досі успішно збирає перегляди в Мережі. До запису дебютного альбому – долучилися, зокрема, Олексій Морозов, Денис Дудко, Алік Фантаєв, Мілош Єліч... Словом, склалося. Вона звучить цікаво – і справа не лише у невимушеній, смачній ясності аранжувань чи щирості інтонацій. Є ще якась така особлива барва у тембрі... наче слухаєш в одному голосі одразу кілька: і зовсім юної дівчини, закоханої в саме життя, і голос жінки, яка вже не раз дивилася у вікна самотності, і – голос душі, яка гаразд знає, що все минає і все приходить знов, і все то радість. Як темно-прозора вода, що не застигає навіть під кригою – сильна, чиста, тиха – здатна будь-якої миті обернутися срібним дзвоном свободи. Може, просто почув те, що ще має бути?.. Назва альбому не обманює. Ця вода – жива. Якщо не застигне – ще не раз зміниться сама, і змінить тих, хто питиме.

Прошу модераторів додати в реліз.



m0rpheus 
Новенький


З нами з: 05.10.14
Востаннє: 31.10.16
Повідомлень: 1

2016-05-31 17:26  
Красно дякую за український музичний контент! За нагоди обов'язково придбаю ліцензійний диск щоб підтримати Христину!
Ваш часовий пояс: GMT + 2 Години

Нова тема   Відповісти