Завантажити та скачати торренти українською


Kladovest - Winterwards (2014) [FLAC] | Black Metal

Нові коментарі

Нова тема   Відповісти
Автор Повідомлення
kolpavel 
VIP


З нами з: 04.05.14
Востаннє: 10.12.16
Повідомлень: 1062

2015-12-12 16:49  
Kladovest - Winterwards (2014) [FLAC] | Black Metal

Kladovest - Winterwards (2014) [FLAC] | Black Metal


Стиль: Black Metal
Країна, місто: Україна, Днiпропетровськ
Сайти: Офіційний сайт
Видавець: No Colours Records
Виконавці:
Дмитро K. - всі інструменти
Thurios - вокал (Astrofaes, Drudkh, Hate Forest)
Олександр A. - лірика, оформлення
Пісні:
    01. The Pale Cold Morning [00:08:41]
    02. Far, the Leaving Cranes... [00:12:47]
    03. An Echo of Thunder [00:08:47]
    04. Milestones of Winter [00:11:59]

Тривалість: 00:42:14
Мова: англiйська
Аудіо-кодек: FLAC
Бітрейт: 1012 кб/с
Джерело: трекер
Додаткова інформація:
Лог рiпу
Exact Audio Copy V1.1 from 23. June 2015

EAC extraction logfile from 7. December 2015, 18:55

Kladovest / Winterwards

Used drive : TSSTcorpCDDVDW SH-224FB Adapter: 1 ID: 0

Read mode : Secure
Utilize accurate stream : Yes
Defeat audio cache : Yes
Make use of C2 pointers : No

Read offset correction : 6
Overread into Lead-In and Lead-Out : No
Fill up missing offset samples with silence : Yes
Delete leading and trailing silent blocks : No
Null samples used in CRC calculations : Yes
Used interface : Native Win32 interface for Win NT & 2000

Used output format : Internal WAV Routines
Sample format : 44.100 Hz; 16 Bit; Stereo

TOC of the extracted CD

Track | Start | Length | Start sector | End sector
---------------------------------------------------------
1 | 0:00.00 | 8:40.50 | 0 | 39049
2 | 8:40.50 | 12:47.08 | 39050 | 96582
3 | 21:27.58 | 8:46.67 | 96583 | 136099
4 | 30:14.50 | 11:58.52 | 136100 | 190001

Range status and errors

Selected range

Filename C:\Users\KDE\Downloads\#mp3\KL - 2014\Kladovest - Winterwards (2014).wav

Peak level 96.0 %
Extraction speed 6.6 X
Range quality 100.0 %
Test CRC C411745D
Copy CRC C411745D
Copy OK

No errors occurred

AccurateRip summary

Track 1 accurately ripped (confidence 2) [12341C33] (AR v2)
Track 2 accurately ripped (confidence 2) [E1CA69FD] (AR v2)
Track 3 accurately ripped (confidence 2) [7E8FE813] (AR v2)
Track 4 accurately ripped (confidence 2) [D03CAE04] (AR v2)

All tracks accurately ripped

End of status report

---- CUETools DB Plugin V2.1.6

[CTDB TOCID: MvOEMuag9TQnGKYMqPyq1X6maxg-] found
Submit result: MvOEMuag9TQnGKYMqPyq1X6maxg- has been confirmed
Track | CTDB Status
1 | (5/5) Accurately ripped
2 | (5/5) Accurately ripped
3 | (5/5) Accurately ripped
4 | (5/5) Accurately ripped
(.CUE)
REM GENRE "Black Metal"
REM DATE 2014-07
REM DISCID 2F09E504
REM COMMENT "ExactAudioCopy v1.1"
PERFORMER "Kladovest"
TITLE "Winterwards"
FILE "Kladovest - Winterwards.flac" WAVE
TRACK 01 AUDIO
TITLE "The Pale Cold Morning"
PERFORMER "Kladovest"
FLAGS DCP
INDEX 01 00:00:00
TRACK 02 AUDIO
TITLE "Far, the Leaving Cranes..."
PERFORMER "Kladovest"
FLAGS DCP
INDEX 01 08:40:50
TRACK 03 AUDIO
TITLE "An Echo of Thunder"
PERFORMER "Kladovest"
FLAGS DCP
INDEX 01 21:27:58
TRACK 04 AUDIO
TITLE "Milestones of Winter"
PERFORMER "Kladovest"
FLAGS DCP
INDEX 01 30:14:50


Якщо Ви справді бажаєте підтримати українське - після прослуховування, якщо музика вам сподобалась, придбайте ліцензійний диск. Підтримаймо вітчизняних виконавців!


Срібний реліз (на рейтинг впливає 50% завантаженого)
 Трекер:    Зареєстрований   

Завантажити / скачати українську музику



відео для новачків



 Зареєстрований:   2015-12-12 16:49
 Розмір:   332 MB 
 Оцінка музики:   8.6/10 (Голосів: 5)
   
Ваш часовий пояс: GMT + 2 Години

Нова тема   Відповісти