Завантажити та скачати торренти українською


Код «М»: у пошуках шпаги д’Артаньяна / Code M (2015) Ukr/Nld

Нові коментарі

Нова тема   Відповісти
Автор Повідомлення
1101 
Свій


З нами з: 09.07.12
Востаннє: 24.11.16
Повідомлень: 62

2015-12-11 22:44  
Код «М»: у пошуках шпаги д’Артаньяна / Code M (2015) Ukr/Nld

Код «М»: у пошуках шпаги д’Артаньяна / Code M (2015) Ukr/Nld


Жанр: сімейний, пригоди
Країна: Нідерланди



Кінокомпанія: Bijker Productions, Elbe Stevens Films
Режисер: Денніс Ботс / Dennis Bots
Актори: Ніна Вісс, Сенна Борсато, Юс Брауерс, Дерек де Лінт, Петер Пауль Мюллер, Ханна ван Люнтерен, Лотьє ван Люнтерен, Юбер Дамен, Раймон Тірі та інші.

Сюжет:
Після того, як дідусь Ісабель потрапляє в аварію, дівчинка знаходить у нього в машині старовинний лист, в якому, ймовірно, міститься вказівка на те, де захована шпага відомого мушкетера д’Артаньяна. Разом з двома друзями – Ріком, її двоюрідним братом, та Жулем – Ісабель повинна розшифрувати таємничий код та знайти реліквію. Але, виявляється, за цим скарбом полюють не вони одні.


Тривалість: 01:34:01
Якість:
Відео:
кодек:
розмір кадру: 720 х 304
бітрейт: 1761 кб/с

Аудіо # 1:
мова: українська
переклад: одноголосий закадровий (Зразок - https://www.sendspace.com/file/ryke1p)
кодек: MP3
бітрейт: 192 кб/с

Аудіо # 2:
мова: нідерландська
переклад: оригінал
кодек: 5.1
бітрейт: 448 кб/с

Джерело озвучення:



Український трейлер
Скріншоти






Медіа Інфо

Format : Matroska
Format version : Version 2
File size : 1.61 GiB
Duration : 1h 34mn
Overall bit rate : 2 450 Kbps
Encoded date : UTC 2015-12-09 21:12:13
Writing application : mkvmerge v5.0.0 ('Die Wahre Liebe') built on Sep 25 2011 20:33:49
Writing library : libebml v1.2.2 + libmatroska v1.3.0

Video
ID : 1
Format : MPEG-4 Visual
Format profile : [email protected]
Format settings, BVOP : No
Format settings, QPel : No
Format settings, GMC : No warppoints
Format settings, Matrix : Default (H.263)
Codec ID :
Codec ID/Hint :
Duration : 1h 34mn
Bit rate : 1 761 Kbps
Width : 720 pixels
Height : 304 pixels
Display aspect ratio : 2.35:1
Frame rate : 25.000 fps
Color space : YUV
Chroma subsampling : 4:2:0
Bit depth : 8 bits
Scan type : Progressive
Compression mode : Lossy
Bits/(Pixel*Frame) : 0.322
Stream size : 1.16 GiB (72%)
Writing library : 1.1.2 (UTC 2006-11-01)
Default : Yes
Forced : No

Audio #1
ID : 2
Format : AC-3
Format/Info : Audio Coding 3
Mode extension : CM (complete main)
Codec ID : A_AC3
Duration : 1h 34mn
Bit rate mode : Constant
Bit rate : 448 Kbps
Channel(s) : 6 channels
Channel positions : Front: L C R, Side: L R, LFE
Sampling rate : 48.0 KHz
Bit depth : 16 bits
Compression mode : Lossy
Stream size : 301 MiB (18%)
Language : Dutch
Default : No
Forced : No

Audio #2
ID : 3
Format : MPEG Audio
Format version : Version 1
Format profile : Layer 3
Mode : Joint stereo
Mode extension : MS Stereo
Codec ID : A_MPEG/L3
Codec ID/Hint : MP3
Duration : 1h 34mn
Bit rate mode : Constant
Bit rate : 192 Kbps
Channel(s) : 2 channels
Sampling rate : 44.1 KHz
Compression mode : Lossy
Stream size : 129 MiB (8%)
Language : Ukrainian
Default : Yes
Forced : Yes
Особиста оцінка: 10 - без зайвих вагань рекомендую всім!


Авторський реліз (завантажувати можна без реєстрації)
 Трекер:    Зареєстрований   

Завантажити / скачати фільм українською



відео для новачків



 Зареєстрований:   2015-12-11 22:44
 Розмір:   1.61 GB 
 Оцінка фільму:   8.5/10 (Голосів: 19)
   
vovchyck 
Свій


З нами з: 22.02.09
Востаннє: 04.12.16
Повідомлень: 145

2015-12-12 01:35  
В заголовку має бути dut, якщо мова нідерландська. Nld не піде
QWERTYJJJJJJ 
Поважний учасник


З нами з: 06.11.12
Востаннє: 17.11.16
Повідомлень: 198

2015-12-12 22:13  
vovchyck
Взагалі-то має бути Ned. Dut - це Данська

sigito 
Новенький


З нами з: 01.10.11
Востаннє: 04.12.16
Повідомлень: 1

2015-12-12 22:21  
Хлопці, а все-таки NLD: https://en.wikipedia.org/wiki/List_of_ISO_639-2_codes
bogdansidor4yk 
Свій


З нами з: 12.12.08
Востаннє: 04.12.16
Повідомлень: 68

2015-12-12 23:59  
Краще би розказали чи варто дивитись, а не сперечались про те, як правильно пишеться.
1101 
Свій


З нами з: 09.07.12
Востаннє: 24.11.16
Повідомлень: 62

2015-12-13 21:20  
bogdansidor4yk написано:
Краще би розказали чи варто дивитись, а не сперечались про те, як правильно пишеться.

Я теж не проти, аби хоч хтось хоч щось про фiльм написав. А то таке враження, що менi одному сподобалось. Як на мене, стандартний сюжет про розгадування загадок та пошук скарбу, добротно зняте кiно насамперед для середнього шкiльного вiку.

jossker 
Новенький


З нами з: 07.07.10
Востаннє: 03.12.16
Повідомлень: 4

2015-12-18 20:53  
Переглядав з сином (10 років) дуже сподобалось, гарне кіно, рекомендую
1101 
Свій


З нами з: 09.07.12
Востаннє: 24.11.16
Повідомлень: 62

2015-12-24 09:09  
jossker написано:
Переглядав з сином (10 років) дуже сподобалось, гарне кіно, рекомендую

Дякую за відгук, радий, що подібне кіно доходить до безпосередньої цільової аудиторії Happy
Уже дуже скоро - хороше різдвяне сімейне кіно

elenaras 
Новенький


З нами з: 11.09.14
Востаннє: 06.12.16
Повідомлень: 16

2015-12-30 14:12  
Хороший дитячий фильм.
legos25 
Відео Гуртом - запис з ТБ
Відео Гуртом - запис з ТБ


З нами з: 02.02.10
Востаннє: 06.12.16
Повідомлень: 1106

2016-01-18 18:31  
Укр. доріжка на 2 місці, підпишіть Nld/Ukr.

Maters 
VIP


З нами з: 27.03.12
Востаннє: 05.12.16
Повідомлень: 1159

2016-03-30 19:47  
сімейний фільм. не супер, але якщо нема нічого, то подивитись можна 6,5/10
Ваш часовий пояс: GMT + 2 Години

Нова тема   Відповісти