Завантажити та скачати торренти українською


ФІОЛЕТ - Дискографія (3 альбоми) (2012-2015) [FLAC] | Indie Rock

Нові коментарі

Нова тема   Відповісти
Автор Повідомлення
vamp69 
Поважний учасник


З нами з: 06.07.09
Востаннє: 09.12.16
Повідомлень: 173

2015-12-10 01:02  
ФІОЛЕТ - Дискографія (3 альбоми) (2012-2015) [FLAC] | Indie Rock



Стиль: Indie Rock
Країна, місто: Україна, Луцьк
Сайти: Офіційний сайт
Видавець: НАШ ФОРМАТ
Виконавці:
Микола Тимощук (гітара)
Сергій Мартинюк (вокал, тексти)
Валентин Миронюк (барабани)
Андрій Олексюк (бас-гітара)
Петро Свіст (клавіші)

Колишні та запрошені:
Олексій Лазарєв — гітара
Юра Шрай — труба
Славко Писарський — труба
Єгор Грушин — клавіші


Дискографія:
    2012 Rock'n'love

    1. Наш Маленький Однокімнатний Світ (03:41)
    2. Вибираю Тебе (03:45)
    3. Луцьк-Париж (02:53)
    4. Мейсца Пакуты (04:24)
    5. Долоні (04:12)
    6. Ультрафіолетосни (04:01)
    7. Далі (03:32)
    8. Пусте (03:55)
    9. SMS-ки До Бога (05:04)
    10. Осінь (05:27)
    11. Тільки З Тобою (03:53)
    12. Паливо (05:24)
    13. Черемшина (Повстанська) (Bonus Track) (03:46)
    14. Зимова (Bonus Track) (03:51)
    15. Я Твій (Bonus Track) (04:13)
    16. Тут Були Колись Ми (Bonus Track) (02:49)

    Тривалість: 1:05:17
    Мова: українська (1-3, 5-16), білоруська (4)
    EAC Log
    Exact Audio Copy V1.0 beta 3 from 29. August 2011

    EAC extraction logfile from 6. December 2015, 22:34

    Фіолет / Rock'n'love

    Used drive : ATAPI iHAS124 B Adapter: 4 ID: 0

    Read mode : Secure
    Utilize accurate stream : Yes
    Defeat audio cache : Yes
    Make use of C2 pointers : No

    Read offset correction : 6
    Overread into Lead-In and Lead-Out : No
    Fill up missing offset samples with silence : Yes
    Delete leading and trailing silent blocks : No
    Null samples used in CRC calculations : Yes
    Used interface : Native Win32 interface for Win NT & 2000

    Used output format : Internal WAV Routines
    Sample format : 44.100 Hz; 16 Bit; Stereo

    TOC of the extracted CD

    Track | Start | Length | Start sector | End sector
    ---------------------------------------------------------
    1 | 0:00.00 | 3:42.65 | 0 | 16714
    2 | 3:42.65 | 3:46.33 | 16715 | 33697
    3 | 7:29.23 | 2:54.30 | 33698 | 46777
    4 | 10:23.53 | 4:25.23 | 46778 | 66675
    5 | 14:49.01 | 4:13.58 | 66676 | 85708
    6 | 19:02.59 | 4:03.07 | 85709 | 103940
    7 | 23:05.66 | 3:34.13 | 103941 | 120003
    8 | 26:40.04 | 3:57.10 | 120004 | 137788
    9 | 30:37.14 | 5:05.43 | 137789 | 160706
    10 | 35:42.57 | 5:28.62 | 160707 | 185368
    11 | 41:11.44 | 3:54.73 | 185369 | 202991
    12 | 45:06.42 | 5:25.46 | 202992 | 227412
    13 | 50:32.13 | 3:48.13 | 227413 | 244525
    14 | 54:20.26 | 3:53.05 | 244526 | 262005
    15 | 58:13.31 | 4:14.72 | 262006 | 281127
    16 | 62:28.28 | 2:48.68 | 281128 | 293795

    Range status and errors

    Selected range

    Filename I:\Українська музика\ФІОЛЕТ - Discography (2013-2014) lossless\2012 Rock'N'Love\Фіолет - 2012 - Rock'n'love.wav

    Peak level 100.0 %
    Extraction speed 2.0 X
    Range quality 99.9 %
    Test CRC 469064C6
    Copy CRC 469064C6
    Copy OK

    No errors occurred

    AccurateRip summary

    Track 1 not present in database
    Track 2 not present in database
    Track 3 not present in database
    Track 4 not present in database
    Track 5 not present in database
    Track 6 not present in database
    Track 7 not present in database
    Track 8 not present in database
    Track 9 not present in database
    Track 10 not present in database
    Track 11 not present in database
    Track 12 not present in database
    Track 13 not present in database
    Track 14 not present in database
    Track 15 not present in database
    Track 16 not present in database

    None of the tracks are present in the AccurateRip database

    End of status report

    ==== Log checksum 41DFCA0874797777D3F803B7D2B58CB5642A5B81E157DA9C97F3089D79D649C2 ====
    2014 Вігвам

    1. Ми не одні (03:56)
    2. Обличчя (03:21)
    3. Чуєш, небо! (04:24)
    4. Скинем светри (04:03)
    5. 2000-ні (03:44)
    6. Після дощу (04:01)
    7. Смішні й прекрасні (03:47)
    8. Люблю тебе (04:18)
    9. Життя летить (02:59)
    10. Картаті сорочки (05:24)
    11. Хто я без тебе (03:36)
    12. Карма (04:48)
    13. Рідна (03:41)
    14. До океану (04:06)
    15. Дим і ти (04:10)

    Тривалість: 1:04:57
    Мова: українська
    EAC Log
    Exact Audio Copy V1.0 beta 3 from 29. August 2011

    EAC extraction logfile from 12. November 2014, 15:15

    Фіолет / Вігвам

    Used drive : ATAPI iHAS124 B Adapter: 4 ID: 0

    Read mode : Secure
    Utilize accurate stream : Yes
    Defeat audio cache : Yes
    Make use of C2 pointers : No

    Read offset correction : 6
    Overread into Lead-In and Lead-Out : No
    Fill up missing offset samples with silence : Yes
    Delete leading and trailing silent blocks : No
    Null samples used in CRC calculations : Yes
    Used interface : Native Win32 interface for Win NT & 2000

    Used output format : Internal WAV Routines
    Sample format : 44.100 Hz; 16 Bit; Stereo

    TOC of the extracted CD

    Track | Start | Length | Start sector | End sector
    ---------------------------------------------------------
    1 | 0:00.00 | 3:58.00 | 0 | 17849
    2 | 3:58.00 | 3:22.35 | 17850 | 33034
    3 | 7:20.35 | 4:26.12 | 33035 | 52996
    4 | 11:46.47 | 4:04.37 | 52997 | 71333
    5 | 15:51.09 | 3:46.18 | 71334 | 88301
    6 | 19:37.27 | 4:03.18 | 88302 | 106544
    7 | 23:40.45 | 3:49.17 | 106545 | 123736
    8 | 27:29.62 | 4:19.48 | 123737 | 143209
    9 | 31:49.35 | 3:00.47 | 143210 | 156756
    10 | 34:50.07 | 5:26.00 | 156757 | 181206
    11 | 40:16.07 | 3:38.07 | 181207 | 197563
    12 | 43:54.14 | 4:49.37 | 197564 | 219275
    13 | 48:43.51 | 3:43.00 | 219276 | 236000
    14 | 52:26.51 | 4:07.61 | 236001 | 254586
    15 | 56:34.37 | 4:11.39 | 254587 | 273450
    16 | 60:46.01 | 4:11.60 | 273451 | 292335

    Range status and errors

    Selected range

    Filename I:\Українська музика\ФІОЛЕТ - Discography (2013-2014) lossless\Фіолет - 2014 - Вігвам\Фіолет - 2014 - Вігвам.wav

    Peak level 100.0 %
    Extraction speed 3.3 X
    Range quality 100.0 %
    Test CRC 02D61B09
    Copy CRC 02D61B09
    Copy OK

    No errors occurred

    AccurateRip summary

    Track 1 not present in database
    Track 2 not present in database
    Track 3 not present in database
    Track 4 not present in database
    Track 5 not present in database
    Track 6 not present in database
    Track 7 not present in database
    Track 8 not present in database
    Track 9 not present in database
    Track 10 not present in database
    Track 11 not present in database
    Track 12 not present in database
    Track 13 not present in database
    Track 14 not present in database
    Track 15 not present in database
    Track 16 not present in database

    None of the tracks are present in the AccurateRip database

    End of status report

    ---- CUETools DB Plugin V2.1.3

    [CTDB TOCID: RlYrms7fY0uCJHUX0VxuxLSTQv0-] disk not present in database, Submit result: RlYrms7fY0uCJHUX0VxuxLSTQv0- has been uploaded

    ==== Log checksum 906C4AE571EBF9747CE5010908686F4A3CBE8737C561F1BDE59EC4F603338DAA ====
    2015 Пісні любові на полі бою

    01. Напам'ять (04:22)
    02. Танго (03:40)
    03. Дзен (04:50)
    04. Касети (03:51)
    05. Герої (05:07)
    06. Паршивка (04:17)
    07. Я буду (03:52)
    08. Сталеві серця (04:37)
    09. Молодість (04:21)
    10. Мій дім (04:39)
    11. Найкращі ліки (03:39)
    12. Каштани (03:39)
    13. Вечірній Львів (04:15)
    14. Барбітура (bonus track) (03:30)
    15. Сини (bonus track) (04:32)

    Тривалість: 01:03:40
    Мова: українська
    EAC Log
    Exact Audio Copy V1.0 beta 3 from 29. August 2011

    EAC extraction logfile from 9. December 2015, 17:31

    Фіолет / Пісні любові на полі бою

    Used drive : ATAPI iHAS124 B Adapter: 4 ID: 0

    Read mode : Secure
    Utilize accurate stream : Yes
    Defeat audio cache : Yes
    Make use of C2 pointers : No

    Read offset correction : 6
    Overread into Lead-In and Lead-Out : No
    Fill up missing offset samples with silence : Yes
    Delete leading and trailing silent blocks : No
    Null samples used in CRC calculations : Yes
    Used interface : Native Win32 interface for Win NT & 2000

    Used output format : Internal WAV Routines
    Sample format : 44.100 Hz; 16 Bit; Stereo

    TOC of the extracted CD

    Track | Start | Length | Start sector | End sector
    ---------------------------------------------------------
    1 | 0:00.00 | 4:24.23 | 0 | 19822
    2 | 4:24.23 | 3:42.26 | 19823 | 36498
    3 | 8:06.49 | 4:51.67 | 36499 | 58390
    4 | 12:58.41 | 3:53.02 | 58391 | 75867
    5 | 16:51.43 | 5:09.09 | 75868 | 99051
    6 | 22:00.52 | 4:18.57 | 99052 | 118458
    7 | 26:19.34 | 3:54.32 | 118459 | 136040
    8 | 30:13.66 | 4:38.73 | 136041 | 156963
    9 | 34:52.64 | 4:23.18 | 156964 | 176706
    10 | 39:16.07 | 4:40.39 | 176707 | 197745
    11 | 43:56.46 | 3:41.31 | 197746 | 214351
    12 | 47:38.02 | 3:41.34 | 214352 | 230960
    13 | 51:19.36 | 4:16.55 | 230961 | 250215
    14 | 55:36.16 | 3:32.31 | 250216 | 266146
    15 | 59:08.47 | 4:32.24 | 266147 | 286570

    Range status and errors

    Selected range

    Filename I:\Українська музика\ФІОЛЕТ - Discography (2013-2014) lossless\2015 Пісні любові на полі бою\Фіолет - 2015 - Пісні любові на полі бою.wav

    Peak level 100.0 %
    Extraction speed 4.7 X
    Range quality 100.0 %
    Test CRC A949A727
    Copy CRC A949A727
    Copy OK

    No errors occurred

    AccurateRip summary

    Track 1 not present in database
    Track 2 not present in database
    Track 3 not present in database
    Track 4 not present in database
    Track 5 not present in database
    Track 6 not present in database
    Track 7 not present in database
    Track 8 not present in database
    Track 9 not present in database
    Track 10 not present in database
    Track 11 not present in database
    Track 12 not present in database
    Track 13 not present in database
    Track 14 not present in database
    Track 15 not present in database

    None of the tracks are present in the AccurateRip database

    End of status report

    ==== Log checksum DD96490596CB05D15889EF224CAE35330950359ACD40BA7940FBFB0A17C60E0C ====


Тривалість: 3:13:54
Мова: українська, білоруська
Аудіо-кодек: FLAC
Бітрейт: ~899 кб/с
Джерело: мій CD
Додаткова інформація:
Фіолет — музичний гурт з міста Луцька, який виник у 2009-му році. Стилістичні обриси творчості команди розвивалася від прифанкованого року з речитативною основою - альбом "Трохи Тепла" (2010) до альтернативного поп-року - альбом "Rock'n'love" (2012) з жорсткішим експресивним звучанням на концертах. Наразі команда стилістично не позиціонує себе жодним чином, легко експериментуючи із звучанням від акустично-джазового варіанту своєї програми до «альтернативної» агресії на концертах. На 2012-ий рік «ФІОЛЕТ» один із найбільш концертуючих молодих гуртів України, який отримав схвальні відгуки як від музичних критиків так і колег із іменитих українських гуртів. Команда, яка збирає повні клубні зали як на заході так і сході України та грає на найкращих фестивальних майданчиках країни.


Якщо Ви справді бажаєте підтримати українське - після прослуховування, якщо музика вам сподобалась, придбайте ліцензійний диск. Підтримаймо вітчизняних виконавців!


Золотий реліз (завантажене не впливає на рейтинг)
 Трекер:    Зареєстрований   

Завантажити / скачати українську музику



відео для новачків



 Зареєстрований:   2015-12-10 01:02
 Розмір:   1.27 GB 
 Оцінка музики:   9.8/10 (Голосів: 15)
   
Jateks 
Частий відвідувач


З нами з: 02.12.09
Востаннє: 11.12.16
Повідомлень: 33

2015-12-10 08:54  
Класний гурт!!! дякую
wertigo-13 
Новенький


З нами з: 07.06.11
Востаннє: 09.12.16
Повідомлень: 3

2015-12-10 13:16  
Одні з кращих українських
Дякую за якість.

Gybalj 
Свій


З нами з: 14.05.09
Востаннє: 08.12.16
Повідомлень: 51

2016-01-23 16:41  
Станьте на роздачу, більше швидкості! Дякую!
Ваш часовий пояс: GMT + 2 Години

Нова тема   Відповісти