Завантажити та скачати торренти українською


Агенти U.N.C.L.E. / The Man from U.N.C.L.E. (2015) 720p-mini

Нові коментарі

Нова тема   Відповісти
Автор Повідомлення
Drool 
VIP


З нами з: 17.04.10
Востаннє: 06.12.16
Повідомлень: 1264

2015-12-09 08:14  
Агенти U.N.C.L.E. / The Man from U.N.C.L.E. (2015) 720p-mini

Жанр: екшн, пригодницький, комедія
Країна: США, Велика Британія



Кінокомпанія: Warner Bros., RatPac-Dune Entertainment, Wigram Productions
Режисер: Ґай Річі
Актори: Генрі Кавілл, Армі Гаммер, Алісія Вікандер, Елізабет Дебікі, Г’ю Ґрант, Лука Кальвані, Сільвестр Ґрот, Джаред Гарріс, Крістіан Беркель

Сюжет:
Події фільму відбуваються в 60-х роках, в період так званої Холодної Війни. Коли світу загрожує небезпека, навіть найзапекліші противники об'єднуються, щоб його врятувати. Це агент ЦРУ Наполеон Соло і оперативник КДБ Ілля Курякін. Разом вони повинні знайти голову таємної міжнародної організації, яка займається незаконними постачаннями ядерної зброї і новітніх технологій. Адже подібні дії можуть призвести до глобального розколу між державами. У агентів є зачіпка - вони вистежили дочку голови злочинницької організації...


Тривалість: 01:56:29
Якість: 720p-mini
Відео:
кодек:
розмір кадру: 1280x534
бітрейт: 2603 кб/с

Аудіо:
мова: українська
переклад: професійний дубльований
кодек: 2.0
бітрейт: 192 кб/с

Субтитри:
мова: українська
тип: програмні (м'які) форсовані
формат: *.srt
Info + MediaInfo
[info]: frame I:1614 Avg QP:16,37 size: 78193
[info]: frame P:35478 Avg QP:19,06 size: 28173
[info]: frame B:130494 Avg QP:21,86 size: 8788
[info]: consecutive B-frames: 2,5% 2,5% 7,0% 17,4% 18,8% 35,1% 7,2% 3,7% 1,9% 1,0% 1,0% 1,2% 0,6%
[info]: mb I I16..4: 9,7% 72,4% 17,9%
[info]: mb P I16..4: 0,9% 10,2% 1,2% P16..4: 30,3% 37,0% 10,5% 1,6% 0,2% skip: 8,2%
[info]: mb B I16..4: 0,1% 1,0% 0,1% B16..8: 35,5% 16,1% 2,1% direct: 3,5% skip:41,4% L0:41,6% L1:48,2% BI:10,2%

General
Unique ID : 227037454620200258842967202869676760373 (0xAACDD2BF8841792AD1AB0C68C4FA5D35)
Complete name : /mnt/disk_d/Video/The.Man.from.U.N.C.L.E.2015.Ukr.Dub-iTunes..720p-mini.UAGet.mkv
Format : Matroska
Format version : Version 2
File size : 2.28 GiB
Duration : 1h 56mn
Overall bit rate : 2 798 Kbps
Writing application : HandBrake rev0
Writing library : libmkv 0.6.5
TITLE : Агенти U.N.C.L.E. / The Man from U.N.C.L.E. (2015) 720p-mini =-UAGet=-
ARTIST : Генрі Кавілл, Армі Гаммер, Алісія Вікандер, Елізабет Дебікі, Г’ю Ґрант та інші
DIRECTOR : Ґай Річі
DATE_RELEASED : 2015
GENRE : бойовик, пригодницький, комедія
SYNOPSIS : Події фільму відбуваються в 60-х роках, в період так званої Холодної Війни. Коли світу загрожує небезпека, навіть найзапекліші противники об'єднуються, щоб його врятувати. Це агент ЦРУ Наполеон Соло і оперативник КДБ Ілля Курякін. Разом вони повинні знайти голову таємної міжнародної організації, яка займається незаконними постачаннями ядерної зброї і новітніх технологій. Адже подібні дії можуть призвести до глобального розколу між державами. У агентів є зачіпка - вони вистежили дочку голови злочинницької організації...

Video
ID : 1
Format : AVC
Format/Info : Advanced Video Codec
Format profile : [email protected]
Format settings, CABAC : Yes
Format settings, ReFrames : 11 frames
Codec ID : V_MPEG4/ISO/AVC
Duration : 1h 56mn
Bit rate : 2 603 Kbps
Width : 1 280 pixels
Height : 534 pixels
Display aspect ratio : 2.40:1
Frame rate mode : Constant
Frame rate : 23.976 fps
Color space : YUV
Chroma subsampling : 4:2:0
Bit depth : 8 bits
Scan type : Progressive
Bits/(Pixel*Frame) : 0.159
Stream size : 2.08 GiB (91%)
Writing library : core 142 r2389 956c8d8
Encoding settings : cabac=1 / ref=12 / deblock=1:-3:-3 / analyse=0x3:0x133 / me=umh / subme=11 / psy=1 / psy_rd=1,10:0,10 / mixed_ref=1 / me_range=64 / chroma_me=1 / trellis=2 / 8x8dct=1 / cqm=0 / deadzone=21,11 / fast_pskip=0 / chroma_qp_offset=-3 / threads=6 / lookahead_threads=1 / sliced_threads=0 / nr=0 / decimate=1 / interlaced=0 / bluray_compat=0 / constrained_intra=0 / bframes=12 / b_pyramid=1 / b_adapt=2 / b_bias=0 / direct=3 / weightb=1 / open_gop=0 / weightp=2 / keyint=240 / keyint_min=24 / scenecut=40 / intra_refresh=0 / rc=2pass / mbtree=0 / bitrate=2603 / ratetol=1,0 / qcomp=1,00 / qpmin=0 / qpmax=69 / qpstep=4 / cplxblur=20,0 / qblur=0,5 / ip_ratio=1,40 / pb_ratio=1,30 / aq=2:0,60
Language : English
Default : Yes
Forced : No
Color range : Limited
Color primaries : BT.709
Transfer characteristics : BT.709
Matrix coefficients : BT.709

Audio
ID : 2
Format : AC-3
Format/Info : Audio Coding 3
Mode extension : CM (complete main)
Format settings, Endianness : Big
Codec ID : A_AC3
Duration : 1h 56mn
Bit rate mode : Constant
Bit rate : 192 Kbps
Channel(s) : 2 channels
Channel positions : Front: L R
Sampling rate : 48.0 KHz
Compression mode : Lossy
Stream size : 160 MiB (7%)
Language : Ukrainian
Default : Yes
Forced : No

Text
ID : 3
Format : UTF-8
Codec ID : S_TEXT/UTF8
Codec ID/Info : UTF-8 Plain Text
Language : Ukrainian
Default : Yes
Forced : No
Скріншоти






Звук придбано за кошт користувачів VolSHeBniK17, NemoInFire, dolar4ik, 137nazik і Kolyaka_zhygul.
Підтримайте купівлю українського звуку тут - Контент для придбання.

Реліз від:
Особиста оцінка: 10 - без зайвих вагань рекомендую всім!


 Трекер:    Зареєстрований   

Завантажити / скачати фільм українською



відео для новачків



 Зареєстрований:   2015-12-09 08:14
 Розмір:   2.28 GB 
 Оцінка фільму:   9.2/10 (Голосів: 27)
   
Інші релізи
   Агенти U.N.C.L.E. / The Man from U.N.C.L.E. (2015) AVC BASTERD-94  11 / 0   1.31 GB   2015-12-13 20:30 
   Агенти U.N.C.L.E. / The Man from U.N.C.L.E. (2015) 1080p Ukr/Eng Sub Eng 11FrYkT  12 / 0   11.77 GB   2015-11-21 20:16 
   Агенти U.N.C.L.E. / The Man from U.N.C.L.E. (2015) Ukr/Eng patriot2305  39 / 1   1.47 GB   2015-11-21 19:43 
   Агенти U.N.C.L.E. / The Man from U.N.C.L.E. (2015) 720p Ukr/Eng Sub Eng 11FrYkT  24 / 0   5.41 GB   2015-11-21 19:43 
   Агенти U.N.C.L.E. / The Man from U.N.C.L.E. (2015) AVC Gelios  8 / 0   1.72 GB   2015-11-21 19:42 
   Агенти U.N.C.L.E. / The Man from U.N.C.L.E. (2015) Ukr/Eng | Sub Eng Gelios  13 / 0   1.97 GB   2015-11-21 19:42 
wolverine 
VIP


З нами з: 26.09.09
Востаннє: 05.12.16
Повідомлень: 320

2015-12-09 11:23  
Не хочу критикувати, але скажіть будь ласка: хто кодував це відео? Деякі ключі просто в холодний піт кидають Wide grin
igor911 
Відео Гуртом
Відео Гуртом


З нами з: 18.01.08
Востаннє: 06.12.16
Повідомлень: 5148

2015-12-09 12:53  
wolverine, які саме?
Drool 
VIP


З нами з: 17.04.10
Востаннє: 06.12.16
Повідомлень: 1264

2015-12-09 12:59  
wolverine написано:
Не хочу критикувати, але скажіть будь ласка: хто кодував це відео? Деякі ключі просто в холодний піт кидають

Я кодував. Якщо є пропозиції по ключам по покращенню - вислухаю.

wolverine 
VIP


З нами з: 26.09.09
Востаннє: 05.12.16
Повідомлень: 320

2015-12-09 15:49  
Drool написано:
Я кодував. Якщо є пропозиції по ключам по покращенню - вислухаю.

Доброго дня. Ні в якому разі не подумайте, що я тут випендрююсь чи щось таке. Сам кодую і знаю, що діло то потребує "набиття руки", а поки ще зберу нормальний комп, то купа часу пройде.
Я цей фільм кодував з такими показниками: ref=9 psy-rd=1.0:0.0 chroma_qp_offset=-2 lookahead_threads=2 bframes=8 b_pyramid=2 bitrate=3200 qcomp=0.65 aq=1:1.00.
Вище за 1 значення aq-strength сильно викривляє зображення. Звісно, Вам вирішувати як кодувати. Поважаю Вашу роботу. Успіхів! Rolleyes (3)
Результати (тло розмите через кодування в hevc)


Drool 
VIP


З нами з: 17.04.10
Востаннє: 06.12.16
Повідомлень: 1264

2015-12-09 22:23  
wolverine написано:
1. Ні в якому разі не подумайте, що я тут випендрююсь чи щось таке.
2. ...а поки ще зберу нормальний комп, то купа часу пройде.
3. bitrate=3200
4. Вище за 1 значення aq-strength сильно викривляє зображення.

1. В жодному разі. Гарна порада для мене завжди корисна.
2. На Аліекспресі можна взяти недорого двопроцесорну мамку під ксеони та пару ксеонів по 4 ядра кожен за вельми адекватні гроші. Або ж навіть взяти один потужний ксеон з модом під 775-й сокет. Народ хвалить. Дивився тести - ксеон вище середнього обходить i3, а деякі тести майже як у i5. Так що тут є над чим подумати.
3. Це, з таким бітрейтом це вже не *-mini.
4. Дякую, спробую при нагоді.

wolverine 
VIP


З нами з: 26.09.09
Востаннє: 05.12.16
Повідомлень: 320

2015-12-10 10:53  
Drool
Дякую за розуміння. Якраз збирався брати Xeon x5650 + материнку на 1366й сокет (на жаль, вони дуже дорогі). На 775й сокет трохи слабуваті проци.
А-а, Вам mini треба. Вибачте, не подумав. Тоді, виходить, при зменшенні бітрейту, доведеться піднімати psy-rd.
Про 775й сокет я ще подумаю, подивлюсь. Дякую і Вам.

Drool 
VIP


З нами з: 17.04.10
Востаннє: 06.12.16
Повідомлень: 1264

2015-12-10 14:55  
wolverine написано:
Xeon x5650 + материнку на 1366й сокет (на жаль, вони дуже дорогі)

На аліекспресі я бачив більш потужні по частоті ксеони.

Ваш часовий пояс: GMT + 2 Години

Нова тема   Відповісти