Завантажити та скачати торренти українською


Секретні матеріали: Хочу вірити / Цілком таємно: Я хочу вірити [Режисерська версія] / The X-Files: I Want to Believe [Director's Cut] (2008) 720p 2xUkr/Eng | Sub Ukr/Eng

Нові коментарі

Нова тема   Відповісти
Автор Повідомлення
Anonymous 







2015-12-04 00:13  
Секретні матеріали: Хочу вірити / Цілком таємно: Я хочу вірити [Режисерська версія] / The X-Files: I Want to Believe [Director's Cut] (2008) 720p 2xUkr/Eng | Sub Ukr/Eng

Секретні матеріали: Хочу вірити / Цілком таємно: Я хочу вірити [Режисерська версія] / The X-Files: I Want to Believe [Director's Cut] (2008) 720p 2xUkr/Eng | Sub Ukr/Eng


Жанр: драма, детектив, містика
Країна: США, Канада



Кінокомпанія: Twentieth Century Fox Film Corporation, Ten Thirteen Productions, Dune Entertainment III
Режисер: Кріс Картер
Актори: Девід Духовни, Джиліан Андерсон, Аманда Піт, Біллі Конноллі, Іксзібіт, Каллум Кейт Ренн та інші

Сюжет:
Фільм-продовження культового телесеріалу "Цілком таємно".

У засніжених краях Аляски відбувається дивне явище — під час північного сяяння на снігу з'являються криваві круги. Місцеві жителі давно стверджували, що в їх лісах живе хтось або щось, схоже на снігову людину, але і досі його вважали доброзичливим звіром. Принаймні, раніше до крові не доходило. Щоб з'ясувати причину надзвичайних подій, на місце прибувають Фокс Малдер і Дейна Скаллі.


Тривалість: 01:48:08
Якість:
Відео:
кодек:
розмір кадру: 1280х528
бітрейт: 4278 кб/с

Аудіо # 1:
мова: українська
переклад: професійний дубльований
кодек: 5.1
бітрейт: 448 кб/с

Аудіо # 2:
мова: українська
переклад: двоголосий закадровий
кодек: 2.0
бітрейт: 192 кб/с

Аудіо # 3:
мова: англійська
переклад: оригінал
кодек: 5.1
бітрейт: 1509 кб/с

Субтитри:
мова: українська
тип: програмні (м'які)
формат: *.srt

Субтитри:
мова: англійська
тип: програмні (м'які)
формат: *.srt
Примітка
За доріжку з дубляжем подяка панові RB26DETT; доріжка 2+2 та українські субтитри взяті з роздачі пана patriot2305, подяка за запис з ТБ панові xslim; ріп я знайшов на thepiratebay.
Робив для себе; швидкість роздачі невелика; при знаходженні технічних помилок пишіть у коментах.
MediaInfo
General
Unique ID : 251954476523848877043349088172137617811 (0xBD8CAAC6CD2ABEBA86989BF6DF799993)
Complete name : G:\Films\The X-Files I Want to Believe (Director's Cut) (2008) 720p [2xUkr, Eng] [Sub Ukr, Eng].mkv
Format : Matroska
Format version : Version 4 / Version 2
File size : 4.84 GiB
Duration : 1h 48mn
Overall bit rate : 6 408 Kbps
Movie name : -=Leonardo=-
Encoded date : UTC 2015-12-04 15:47:08
Writing application : mkvmerge v8.1.0 ('Psychedelic Postcard') 64bit
Writing library : libebml v1.3.1 + libmatroska v1.4.2
DURATION : 01:48:08.288000000
NUMBER_OF_FRAMES : 202759
NUMBER_OF_BYTES : 363344128
_STATISTICS_WRITING_APP : mkvmerge v8.1.0 ('Psychedelic Postcard') 64bit
_STATISTICS_WRITING_DATE_UTC : 2015-12-04 15:47:08
_STATISTICS_TAGS : BPS DURATION NUMBER_OF_FRAMES NUMBER_OF_BYTES
Attachment : Yes

Video
ID : 1
Format : AVC
Format/Info : Advanced Video Codec
Format profile : [email protected]
Format settings, CABAC : Yes
Format settings, ReFrames : 5 frames
Codec ID : V_MPEG4/ISO/AVC
Duration : 1h 48mn
Bit rate : 4 278 Kbps
Width : 1 280 pixels
Height : 528 pixels
Display aspect ratio : 2.40:1
Frame rate mode : Constant
Frame rate : 23.976 fps
Color space : YUV
Chroma subsampling : 4:2:0
Bit depth : 8 bits
Scan type : Progressive
Bits/(Pixel*Frame) : 0.264
Stream size : 3.12 GiB (64%)
Title : SiNNERS [PublicHD]
Writing library : core 65 r1057 5f8a149
Encoding settings : cabac=1 / ref=5 / deblock=1:0:0 / analyse=0x3:0x113 / me=umh / subme=7 / psy_rd=1.0:0.0 / mixed_ref=1 / me_range=16 / chroma_me=1 / trellis=1 / 8x8dct=1 / cqm=0 / deadzone=21,11 / chroma_qp_offset=-2 / threads=6 / nr=0 / decimate=1 / mbaff=0 / bframes=3 / b_pyramid=1 / b_adapt=1 / b_bias=0 / direct=1 / wpredb=1 / keyint=250 / keyint_min=25 / scenecut=40(pre) / rc=2pass / bitrate=4278 / ratetol=1.0 / qcomp=0.60 / qpmin=10 / qpmax=51 / qpstep=4 / cplxblur=20.0 / qblur=0.5 / ip_ratio=1.40 / pb_ratio=1.30 / aq=1:1.00
Language : English
Default : Yes
Forced : No
DURATION : 01:48:08.310000000
NUMBER_OF_FRAMES : 155062
NUMBER_OF_BYTES : 3456302704
_STATISTICS_WRITING_APP : mkvmerge v8.1.0 ('Psychedelic Postcard') 64bit
_STATISTICS_WRITING_DATE_UTC : 2015-12-04 15:47:08
_STATISTICS_TAGS : BPS DURATION NUMBER_OF_FRAMES NUMBER_OF_BYTES

Audio #1
ID : 2
Format : AC-3
Format/Info : Audio Coding 3
Mode extension : CM (complete main)
Format settings, Endianness : Big
Codec ID : A_AC3
Duration : 1h 48mn
Bit rate mode : Constant
Bit rate : 448 Kbps
Channel count : 6 channels
Channel positions : Front: L C R, Side: L R, LFE
Sampling rate : 48.0 KHz
Bit depth : 16 bits
Compression mode : Lossy
Stream size : 347 MiB (7%)
Title : Dub
Language : Ukrainian
Default : Yes
Forced : No

Audio #2
ID : 3
Format : AC-3
Format/Info : Audio Coding 3
Mode extension : CM (complete main)
Format settings, Endianness : Big
Codec ID : A_AC3
Duration : 1h 48mn
Bit rate mode : Constant
Bit rate : 192 Kbps
Channel count : 2 channels
Channel positions : Front: L R
Sampling rate : 48.0 KHz
Bit depth : 16 bits
Compression mode : Lossy
Stream size : 149 MiB (3%)
Title : 2+2
Language : Ukrainian
Default : No
Forced : No

Audio #3
ID : 4
Format :
Format/Info : Digital Theater Systems
Mode : 16
Format settings, Endianness : Big
Codec ID : A_DTS
Duration : 1h 48mn
Bit rate mode : Constant
Bit rate : 1 509 Kbps
Channel count : 6 channels
Channel positions : Front: L C R, Side: L R, LFE
Sampling rate : 48.0 KHz
Bit depth : 24 bits
Compression mode : Lossy
Stream size : 1.14 GiB (24%)
Language : English
Default : No
Forced : No

Text #1
ID : 5
Format : UTF-8
Codec ID : S_TEXT/UTF8
Codec ID/Info : UTF-8 Plain Text
Language : Ukrainian
Default : Yes
Forced : No

Text #2
ID : 6
Format : UTF-8
Codec ID : S_TEXT/UTF8
Codec ID/Info : UTF-8 Plain Text
Language : English
Default : No
Forced : No
Скріншоти







 Трекер:    Зареєстрований   

Завантажити / скачати фільм українською



відео для новачків



 Зареєстрований:   2015-12-04 18:14
 Розмір:   4.84 GB 
 Оцінка фільму:   10/10 (Голосів: 7)
   
igor911 
Відео Гуртом
Відео Гуртом


З нами з: 18.01.08
Востаннє: 04.12.16
Повідомлень: 5127

2015-12-04 08:43  
[Captain] написано:

Language : English
Default : Yes

За замовчуванням виставлена англійська доріжка

Додано через 1 хвилину 45 секунд:

[Captain]
Додаток до релізів в якості HD написано:
1. Скріншоти повинні бути у форматі .png


Додано через 1 хвилину 9 секунд:

заміни скріншоти

Anonymous 







2015-12-04 14:01  
igor911
так і знав, що не зможу зробити нормально відразу) Ввечері перероблю
UPDATE. Переробив, також замінив доріжку з дубляжем на ту, що знайшов у розділі "Доріжки", бо у Патріота трошки розсинхрон був. Маю надію, що тепер усе...

Lindenbrok 
Новенький


З нами з: 06.06.14
Востаннє: 02.12.16
Повідомлень: 20

2015-12-04 18:29  
Дякую, але хто б роздав Sad (1)
Anonymous 







2015-12-04 18:39  
Lindenbrok написано:
Дякую, але хто б роздав

У примітці я попередив про швидкість))

Lindenbrok 
Новенький


З нами з: 06.06.14
Востаннє: 02.12.16
Повідомлень: 20

2015-12-04 19:25  
Дай качну і стану на нормальну роздачу. Будь ласка.
Anonymous 







2015-12-04 20:00  
Друже, я не можу. Чесно. Інтернет такий. Почекай трохи.
Ваш часовий пояс: GMT + 2 Години

Нова тема   Відповісти