Завантажити та скачати торренти українською


Перший месник / Captain America: The First Avenger (2011) 1080p Ukr/Eng | Sub Ukr/Eng

Нові коментарі

Нова тема   Відповісти
Автор Повідомлення
famous37 
Відео Гуртом - фільмокрай
Відео Гуртом - фільмокрай


З нами з: 16.11.08
Востаннє: 11.12.16
Повідомлень: 556

2015-12-01 01:08  
Перший месник / Captain America: The First Avenger (2011) 1080p Ukr/Eng | Sub Ukr/Eng

Перший месник / Captain America: The First Avenger (2011) 1080p Ukr/Eng | Sub Ukr/Eng


Жанр: екшн, фантастика, трилер, пригоди
Країна: США



Кінокомпанія: Marvel Enterprises, Marvel Entertainment, Marvel Studios
Режисер: Джо Джонстон
Актори: Кріс Еванс, Хейлі Етвелл, Себастіан Стен, Томмі Лі Джонс, Хьюго Уївінг, Домінік Купер, Річард Армітедж, Стенлі Туччі, Семюел Л. Джексон, Тобі Джонс

Сюжет:
Стів Роджерс добровільно погоджується взяти участь в експерименті, який перетворить його на супер солдата, відомого як Перший месник. Роджерс вступає у озбройні сили США разом з Бакі Барнсом і Пеггі Картером, щоб боротися з ворожою організацією ГІДРА, якою управляє безжалісний Червоний Череп.


Тривалість: 02:04:11
Якість:
Відео:
кодек:
розмір кадру: 1920 х 816
бітрейт: 11.3 мб/с

Аудіо # 1:
мова: українська
переклад: професійний дубльований
кодек: 5.1
бітрейт: 755 кб/с

Аудіо # 2:
мова: англійська
переклад: оригінал
кодек: HD 5.1
бітрейт: 1536 кб/с

Аудіо # 3:
мова: англійська (коментарі)
переклад: оригінал
кодек: 2.0
бітрейт: 224 кб/с

Джерело озвучення:


Субтитри# 1:
мова: українська (форсовані)
переклад: програмні (м'які)
формат: *.srt

Субтитри# 2:
мова: українська (повні)
переклад: програмні (м'які)
формат: *.srt

Субтитри# 3:
мова: англійська (форсовані)
переклад: програмні (м'які)
формат: *.srt

Субтитри# 4:
мова: англійська (повні)
переклад: програмні (м'які)
формат: *.srt

Субтитри# 5:
мова: англійська (коментарі)
переклад: програмні (м'які)
формат: *.srt
MediaInfo
General
Unique ID : 175817533052275758434544792899631147960 (0x844539A46FFFA6BF8A6691E8C2F36BB8)
Complete name : D:\Фільми\Екшн, бойовик\Captain America. The First Avenger (2011) [Ukr,Eng] 1080p by famous37 [Hurtom].mkv
Format : Matroska
Format version : Version 4 / Version 2
File size : 11.9 GiB
Duration : 2h 4mn
Overall bit rate : 13.8 Mbps
Movie name : Перший месник / Captain America: The First Avenger (2011)
Encoded date : UTC 2015-11-30 22:47:43
Writing application : mkvmerge v8.6.1 ('Flying') 64bit
Writing library : libebml v1.3.3 + libmatroska v1.4.4
DURATION : 01:56:16.886000000
NUMBER_OF_FRAMES : 1517
NUMBER_OF_BYTES : 71621
_STATISTICS_WRITING_APP : mkvmerge v8.6.1 ('Flying') 64bit
_STATISTICS_WRITING_DATE_UT : 2015-11-30 22:47:43
_STATISTICS_TAGS : BPS DURATION NUMBER_OF_FRAMES NUMBER_OF_BYTES

Video
ID : 1
Format : AVC
Format/Info : Advanced Video Codec
Format profile : [email protected]
Format settings, CABAC : Yes
Format settings, ReFrames : 5 frames
Codec ID : V_MPEG4/ISO/AVC
Duration : 2h 4mn
Bit rate : 11.3 Mbps
Width : 1 920 pixels
Height : 816 pixels
Display aspect ratio : 2.35:1
Frame rate mode : Constant
Frame rate : 23.976 fps
Color space : YUV
Chroma subsampling : 4:2:0
Bit depth : 8 bits
Scan type : Progressive
Bits/(Pixel*Frame) : 0.300
Stream size : 9.54 GiB (80%)
Title : Captain America. The First Avenger (2011) [Ukr] 1080p by famous37 [Hurtom]
Writing library : core 118 r2085 8a62835
Encoding settings : cabac=1 / ref=5 / deblock=1:-3:-3 / analyse=0x3:0x133 / me=umh / subme=10 / psy=1 / psy_rd=0.90:0.80 / mixed_ref=1 / me_range=64 / chroma_me=1 / trellis=2 / 8x8dct=1 / cqm=0 / deadzone=21,11 / fast_pskip=1 / chroma_qp_offset=-4 / threads=12 / sliced_threads=0 / nr=0 / decimate=1 / interlaced=0 / bluray_compat=0 / constrained_intra=0 / bframes=8 / b_pyramid=2 / b_adapt=2 / b_bias=0 / direct=3 / weightb=1 / open_gop=1 / weightp=2 / keyint=250 / keyint_min=23 / scenecut=40 / intra_refresh=0 / rc_lookahead=80 / rc=2pass / mbtree=1 / bitrate=11266 / ratetol=1.0 / qcomp=0.60 / qpmin=10 / qpmax=69 / qpstep=4 / cplxblur=20.0 / qblur=0.5 / ip_ratio=1.40 / aq=1:0.90
Language : Ukrainian
Default : Yes
Forced : No
DURATION : 02:04:11.569000000
NUMBER_OF_FRAMES : 178659
NUMBER_OF_BYTES : 10490419597
_STATISTICS_WRITING_APP : mkvmerge v8.6.1 ('Flying') 64bit
_STATISTICS_WRITING_DATE_UT : 2015-11-30 22:47:43
_STATISTICS_TAGS : BPS DURATION NUMBER_OF_FRAMES NUMBER_OF_BYTES

Audio #1
ID : 2
Format :
Format/Info : Digital Theater Systems
Mode : 16
Format settings, Endianness : Big
Codec ID : A_DTS
Duration : 2h 4mn
Bit rate mode : Constant
Bit rate : 755 Kbps
Channel(s) : 6 channels
Channel positions : Front: L C R, Side: L R, LFE
Sampling rate : 48.0 KHz
Bit depth : 24 bits
Compression mode : Lossy
Stream size : 670 MiB (5%)
Title : Українська
Language : Ukrainian
Default : Yes
Forced : No

Audio #2
ID : 3
Format :
Format/Info : Digital Theater Systems
Mode : 16
Format settings, Endianness : Big
Codec ID : A_DTS
Duration : 2h 4mn
Bit rate mode : Constant
Bit rate : 1 509 Kbps
Channel(s) : 6 channels
Channel positions : Front: L C R, Side: L R, LFE
Sampling rate : 48.0 KHz
Bit depth : 24 bits
Compression mode : Lossy
Stream size : 1.31 GiB (11%)
Title : English 5.1 @ 1536 Kbps (ядро -HD MA)
Language : English
Default : No
Forced : No

Audio #3
ID : 4
Format : AC-3
Format/Info : Audio Coding 3
Mode extension : CM (complete main)
Format settings, Endianness : Big
Codec ID : A_AC3
Duration : 2h 4mn
Bit rate mode : Constant
Bit rate : 224 Kbps
Channel(s) : 2 channels
Channel positions : Front: L R
Sampling rate : 48.0 KHz
Compression mode : Lossy
Stream size : 199 MiB (2%)
Title : English 2.0 @ 224 Kbps (комментарии режиссера)
Language : English
Default : No
Forced : No

Text #1
ID : 5
Format : ASS
Codec ID : S_TEXT/ASS
Codec ID/Info : Advanced Sub Station Alpha
Compression mode : Lossless
Title : Українські (форсовані)
Language : Ukrainian
Default : Yes
Forced : No

Text #2
ID : 6
Format : ASS
Codec ID : S_TEXT/ASS
Codec ID/Info : Advanced Sub Station Alpha
Compression mode : Lossless
Title : English (forced)
Language : English
Default : No
Forced : No

Text #3
ID : 7
Format : UTF-8
Codec ID : S_TEXT/UTF8
Codec ID/Info : UTF-8 Plain Text
Title : Українські
Language : Ukrainian
Default : No
Forced : No

Text #4
ID : 8
Format : UTF-8
Codec ID : S_TEXT/UTF8
Codec ID/Info : UTF-8 Plain Text
Title : English
Language : English
Default : No
Forced : No

Text #5
ID : 9
Format : UTF-8
Codec ID : S_TEXT/UTF8
Codec ID/Info : UTF-8 Plain Text
Title : English (коментарі)
Language : English
Default : No
Forced : No

Menu
00:00:00.000 : en:00:00:00.000
00:08:12.158 : en:00:08:12.158
00:14:56.813 : en:00:14:56.813
00:24:21.543 : en:00:24:21.543
00:30:39.129 : en:00:30:39.129
00:38:39.859 : en:00:38:39.859
00:45:52.166 : en:00:45:52.166
00:51:58.157 : en:00:51:58.157
00:57:55.639 : en:00:57:55.639
01:03:59.294 : en:01:03:59.294
01:12:22.588 : en:01:12:22.588
01:19:10.663 : en:01:19:10.663
01:28:27.052 : en:01:28:27.052
01:33:53.002 : en:01:33:53.002
01:42:20.343 : en:01:42:20.343
01:50:45.055 : en:01:50:45.055
01:53:46.319 : en:01:53:46.319
Скріншоти
Джерело:
Особиста оцінка: 10 - без зайвих вагань рекомендую всім!

Будь ласка, залишайтеся на роздачі!
Діліться з ближніми!


 Трекер:    Зареєстрований   

Завантажити / скачати фільм українською



відео для новачків



 Зареєстрований:   2015-12-01 01:08
 Розмір:   11.93 GB 
 Оцінка фільму:   8.3/10 (Голосів: 15)
   
megaars25 
Новенький


З нами з: 10.04.15
Востаннє: 10.12.16
Повідомлень: 2

2016-01-20 09:55  
Поверніться будь-ласка на роздачу...
Ваш часовий пояс: GMT + 2 Години

Нова тема   Відповісти