Завантажити та скачати торренти українською


Встигнути до / Due Date (2010) 1080p Ukr/Eng | Sub Eng/Ukr

Нові коментарі

Нова тема   Відповісти
Автор Повідомлення
famous37 
Відео Гуртом - фільмокрай
Відео Гуртом - фільмокрай


З нами з: 16.11.08
Востаннє: 07.12.16
Повідомлень: 549

2015-11-30 18:35  
Встигнути до / Due Date (2010) 1080p Ukr/Eng | Sub Eng/Ukr

Встигнути до / Due Date (2010) 1080p Ukr/Eng | Sub Eng/Ukr


Жанр: комедія, екшн
Країна: США



Кінокомпанія: Warner Bros. Pictures, Legendary Pictures, Green Hat Films; мейджор – Warner Bros
Режисер: Тодд Філліпс (Todd Phillips)
Актори: Роберт Дауні-молодший (Robert Downey Jr.), Зак Ґаліфіанакіс (Zach Galifianakis), Мішель Монаґан (Michelle Monaghan), Джеймі Фокс (Jamie Foxx), Джульєтт Льюіс (Juliette Lewis)

Сюжет:
Дружина керівника великого підприємства з Лос-Анджелеса ось-ось народить їх першу дитину. Але майбутній батько Пітер Хаймен не встигає додому до народження своєї дитини... Єдиний шанс приїхати вчасно - скласти компанію честолюбному зануді акторові Ітану Тремблеєму.

Героя чекає не просто випробування дорогою і часом, але і перевірка на міцність його нервів супутником, який не проти повеселитися і вивести з себе майбутнього батька.


Тривалість: 01:35:15
Якість:
Відео:
кодек:
розмір кадру: 1920 х 800
бітрейт: 10.4 мб/с

Аудіо # 1:
мова: українська
переклад: професійний дубльований
кодек: 5.1
бітрейт: 448 кб/с

Аудіо # 2:
мова: англійська
переклад: оригінал
кодек: 5.1
бітрейт: 1509 кб/с

Джерело озвучення:


Субтитри:
мова: англійська
тип: програмні (м'які)
формат: *.srt

Субтитри:
мова: українська Завантажити
тип: програмні (м'які)
формат: *.srt
MediaInfo
General
Unique ID : 204783466743433993211100525390917415941 (0x9A0FDC6F313E4D4CAC54DD5823963405)
Complete name : D:\Фільми\Комедія\Due Date 2010 [Ukr, Eng] 1080p by famous37 [Hurtom].mkv
Format : Matroska
Format version : Version 4 / Version 2
File size : 8.22 GiB
Duration : 1h 35mn
Overall bit rate : 12.3 Mbps
Movie name : Due Date 2010 [Ukr, Eng] 1080p by famous37 [Hurtom]
Encoded date : UTC 2015-11-30 16:14:44
Writing application : mkvmerge v8.6.1 ('Flying') 64bit
Writing library : libebml v1.3.3 + libmatroska v1.4.4
DURATION : 01:29:21.940000000
NUMBER_OF_FRAMES : 1434
NUMBER_OF_BYTES : 54904
_STATISTICS_WRITING_APP : mkvmerge v8.6.1 ('Flying') 64bit
_STATISTICS_WRITING_DATE_UT : 2015-11-30 16:14:44
_STATISTICS_TAGS : BPS DURATION NUMBER_OF_FRAMES NUMBER_OF_BYTES

Video
ID : 1
Format : AVC
Format/Info : Advanced Video Codec
Format profile : [email protected]
Format settings, CABAC : Yes
Format settings, ReFrames : 5 frames
Codec ID : V_MPEG4/ISO/AVC
Duration : 1h 35mn
Bit rate : 10.4 Mbps
Width : 1 920 pixels
Height : 800 pixels
Display aspect ratio : 2.40:1
Frame rate mode : Constant
Frame rate : 23.976 fps
Color space : YUV
Chroma subsampling : 4:2:0
Bit depth : 8 bits
Scan type : Progressive
Bits/(Pixel*Frame) : 0.282
Stream size : 6.75 GiB (82%)
Title : Due Date 2010 [Ukr, Eng] 1080p by famous37 [Hurtom]
Writing library : core 107 r1766 f9f0035
Encoding settings : cabac=1 / ref=5 / deblock=1:-3:-3 / analyse=0x3:0x113 / me=umh / subme=9 / psy=1 / psy_rd=1.05:0.10 / mixed_ref=1 / me_range=48 / chroma_me=1 / trellis=2 / 8x8dct=1 / cqm=2 / deadzone=21,11 / fast_pskip=0 / chroma_qp_offset=-2 / threads=12 / sliced_threads=0 / nr=0 / decimate=1 / interlaced=0 / constrained_intra=0 / bframes=6 / b_pyramid=2 / b_adapt=2 / b_bias=0 / direct=3 / weightb=1 / open_gop=0 / weightp=2 / keyint=250 / keyint_min=23 / scenecut=40 / intra_refresh=0 / rc_lookahead=40 / rc=2pass / mbtree=0 / bitrate=10391 / ratetol=1.0 / qcomp=0.70 / qpmin=10 / qpmax=51 / qpstep=4 / cplxblur=20.0 / qblur=0.5 / vbv_maxrate=40000 / vbv_bufsize=30000 / ip_ratio=1.40 / pb_ratio=1.30 / aq=1:0.80 / nal_hrd=none
Language : English
Default : No
Forced : No
DURATION : 01:35:15.747000000
NUMBER_OF_FRAMES : 137041
NUMBER_OF_BYTES : 7423280231
_STATISTICS_WRITING_APP : mkvmerge v8.6.1 ('Flying') 64bit
_STATISTICS_WRITING_DATE_UT : 2015-11-30 16:14:44
_STATISTICS_TAGS : BPS DURATION NUMBER_OF_FRAMES NUMBER_OF_BYTES

Audio #1
ID : 2
Format : AC-3
Format/Info : Audio Coding 3
Mode extension : CM (complete main)
Format settings, Endianness : Big
Codec ID : A_AC3
Duration : 1h 35mn
Bit rate mode : Constant
Bit rate : 448 Kbps
Channel(s) : 6 channels
Channel positions : Front: L C R, Side: L R, LFE
Sampling rate : 48.0 KHz
Compression mode : Lossy
Stream size : 305 MiB (4%)
Title : Українська
Language : Ukrainian
Default : Yes
Forced : No

Audio #2
ID : 3
Format :
Format/Info : Digital Theater Systems
Mode : 16
Format settings, Endianness : Big
Codec ID : A_DTS
Duration : 1h 35mn
Bit rate mode : Constant
Bit rate : 1 509 Kbps
Channel(s) : 6 channels
Channel positions : Front: L C R, Side: L R, LFE
Sampling rate : 48.0 KHz
Bit depth : 24 bits
Compression mode : Lossy
Delay relative to video : 33ms
Stream size : 1.00 GiB (12%)
Title : Англійська
Language : English
Default : No
Forced : No

Text
ID : 4
Format : UTF-8
Codec ID : S_TEXT/UTF8
Codec ID/Info : UTF-8 Plain Text
Language : English
Default : No
Forced : No

Menu
00:00:00.000 : en:Chapter 1
00:09:58.056 : en:Chapter 2
00:18:37.158 : en:Chapter 3
00:30:19.943 : en:Chapter 4
00:40:59.415 : en:Chapter 5
00:50:43.457 : en:Chapter 6
00:58:39.808 : en:Chapter 7
01:08:47.790 : en:Chapter 8
01:18:34.418 : en:Chapter 9
01:28:30.555 : en:Chapter 10
Скріншоти
Джерело:
Особиста оцінка: 10 - один з улюблених комедійних фільмів!

Будь ласка, залишайтеся на роздачі!
Діліться з ближніми!


 Трекер:    Зареєстрований   

Завантажити / скачати фільм українською



відео для новачків



 Зареєстрований:   2015-11-30 18:35
 Розмір:   8.22 GB 
 Оцінка фільму:   8.8/10 (Голосів: 16)
   
Інші релізи
   Встигнути до / Due Date (2010) 720p Ukr/Eng | Sub Multi leroykendall  7 / 0   5.24 GB   2012-01-05 10:35 
   Встигнути до... / Due Date (2010) Ukr | Sub Ukr/Eng karvai0  14 / 0   1.45 GB   2011-03-08 16:15 
igor911 
Відео Гуртом
Відео Гуртом


З нами з: 18.01.08
Востаннє: 07.12.16
Повідомлень: 5176

2015-11-30 21:06  
famous37, забув додати українські субтитри.
unbreakable04 
Новенький


З нами з: 21.11.12
Востаннє: 07.12.16
Повідомлень: 3

2015-12-09 00:04  
бомбезний фільм, обожнюю його, одна з найкращих комедій за останні 5-10 років як на мене і український переклад суперовий!
Olkos 
VIP


З нами з: 07.03.09
Востаннє: 07.12.16
Повідомлень: 534

2016-01-01 22:07  
Фільм не дуже, обидва персонажі неприємні, ледве додивився до кінця.
Ваш часовий пояс: GMT + 2 Години

Нова тема   Відповісти