Завантажити та скачати торренти українською


Шпигунка [Розширена версія] / Spy [Extended Cut] (2015) 720p-mini (60 fps)

Нові коментарі

Нова тема   Відповісти
Автор Повідомлення
Drool 
VIP


З нами з: 17.04.10
Востаннє: 06.12.16
Повідомлень: 1264

2015-11-25 09:46  
Шпигунка [Розширена версія] / Spy [Extended Cut] (2015) 720p-mini (60 fps)

Жанр: екшн, комедія, кримінальний
Країна: США



Кінокомпанія: Chernin Entertainment, Feigco Entertainment, Twentieth Century Fox
Режисер: Пол Фейґ
Актори: Мелісса МакКарті, Джейсон Стетем, Джуд Лоу, Роуз Бірн, Міранда Гарт, Боббі Каннавале, Морена Баккарін, Джесіка Чаффін, Сем Річардсон, Річард Брейк та інші

Сюжет:
Сьюзан Купер – скромна кабінетна працівниця аналітичного відділу ЦРУ та неоспівана героїня, яка стоїть за найнебезпечнішими операціями Агентства. Проте, коли її напарник зникає, а іншого провідного агента викрито, вона добровільно бере на себе супер-таємну місію, щоб потрапити у середовище торговця смертельною зброєю та запобігти світовій катастрофі.


Тривалість: 02:10:23
Якість: 720p
Відео:
кодек:
розмір кадру: 1280x536
бітрейт: 4860 кб/с
кадрів на секунду: 59.940 к/с

Аудіо:
мова: англійська
переклад: професійний дубльований
кодек: 5.1
бітрейт: 448 кб/с

Джерело озвучення:


Субтитри:
мова: українська
тип: програмні (м'які) форсовані
формат: *.srt
MediaInfo
General
Unique ID : 230241277118886504219391190187860222372 (0xAD36DB64988FEEF7720998651E92E1A4)
Complete name : /mnt/disk_d/Video/Spy.Extended.Cut.2015.Ukr.Dub..720p-mini.60fps.mkv
Format : Matroska
Format version : Version 4 / Version 2
File size : 4.96 GiB
Duration : 2h 10mn
Overall bit rate : 5 441 Kbps
Movie name : Шпигунка [Розширена версія] / Spy [Extended Cut] (2015) 720p-mini [60 fps] [NNNB]
Encoded date : UTC 2015-11-25 14:48:32
Writing application : mkvmerge v8.5.0 ('Vanishing Act') 64bit
Writing library : libebml v1.3.1 + libmatroska v1.4.2
TITLE : Шпигунка [Розширена версія] / Spy [Extended Cut] (2015) 720p-mini -=UAGet=
ARTIST : Мелісса МакКарті, Джейсон Стетем, Джуд Лоу, Роуз Бірн, Міранда Гарт та інші
DIRECTOR : Пол Фейґ
DATE_RELEASED : 2015
GENRE : екшн, комедія, кримінальний
SYNOPSIS : Сьюзан Купер – скромна кабінетна працівниця аналітичного відділу ЦРУ та неоспівана героїня, яка стоїть за найнебезпечнішими операціями Агентства. Проте, коли її напарник зникає, а іншого провідного агента викрито, вона добровільно бере на себе супер-таємну місію, щоб потрапити у середовище торговця смертельною зброєю та запобігти світовій катастрофі.
DURATION : 02:09:23.179000000
NUMBER_OF_FRAMES : 15
NUMBER_OF_BYTES : 546
_STATISTICS_WRITING_APP : mkvmerge v8.5.0 ('Vanishing Act') 64bit
_STATISTICS_WRITING_DATE_UTC : 2015-11-25 14:48:32
_STATISTICS_TAGS : BPS DURATION NUMBER_OF_FRAMES NUMBER_OF_BYTES

Video
ID : 1
Format : AVC
Format/Info : Advanced Video Codec
Format profile : [email protected]
Format settings, CABAC : Yes
Format settings, ReFrames : 9 frames
Codec ID : V_MPEG4/ISO/AVC
Duration : 2h 10mn
Bit rate : 4 885 Kbps
Width : 1 280 pixels
Height : 536 pixels
Display aspect ratio : 2.40:1
Frame rate mode : Constant
Frame rate : 59.880 fps
Original frame rate : 59.940 fps
Color space : YUV
Chroma subsampling : 4:2:0
Bit depth : 8 bits
Scan type : Progressive
Bits/(Pixel*Frame) : 0.119
Stream size : 4.45 GiB (90%)
Title : Шпигунка [Розширена версія] / Spy [Extended Cut] (2015) 720p-mini [60 fps] [NNNB]
Writing library : core 146 r2538 121396c
Encoding settings : cabac=1 / ref=9 / deblock=1:0:0 / analyse=0x3:0x113 / me=umh / subme=10 / psy=1 / psy_rd=1.00:0.00 / mixed_ref=1 / me_range=24 / chroma_me=1 / trellis=2 / 8x8dct=1 / cqm=0 / deadzone=21,11 / fast_pskip=1 / chroma_qp_offset=-2 / threads=6 / lookahead_threads=1 / sliced_threads=0 / nr=0 / decimate=0 / interlaced=0 / bluray_compat=0 / constrained_intra=0 / bframes=6 / b_pyramid=2 / b_adapt=2 / b_bias=0 / direct=1 / weightb=1 / open_gop=0 / weightp=2 / keyint=250 / keyint_min=25 / scenecut=40 / intra_refresh=0 / rc_lookahead=40 / rc=crf / mbtree=0 / crf=16.0 / qcomp=0.60 / qpmin=0 / qpmax=69 / qpstep=4 / vbv_maxrate=50000 / vbv_bufsize=62500 / crf_max=0.0 / nal_hrd=none / filler=0 / ip_ratio=1.40 / pb_ratio=1.30 / aq=1:1.00
Default : Yes
Forced : Yes
DURATION : 02:10:22.915000000
NUMBER_OF_FRAMES : 468906
NUMBER_OF_BYTES : 4879055182
_STATISTICS_WRITING_APP : mkvmerge v8.5.0 ('Vanishing Act') 64bit
_STATISTICS_WRITING_DATE_UTC : 2015-11-25 14:48:32
_STATISTICS_TAGS : BPS DURATION NUMBER_OF_FRAMES NUMBER_OF_BYTES

Audio
ID : 2
Format : AC-3
Format/Info : Audio Coding 3
Mode extension : CM (complete main)
Format settings, Endianness : Big
Codec ID : A_AC3
Duration : 2h 10mn
Bit rate mode : Constant
Bit rate : 448 Kbps
Channel(s) : 6 channels
Channel positions : Front: L C R, Side: L R, LFE
Sampling rate : 48.0 KHz
Compression mode : Lossy
Stream size : 418 MiB (8%)
Title : Рідна мова ( 5.1 @ 448 kbps)
Language : Ukrainian
Default : Yes
Forced : Yes

Text
ID : 3
Format : UTF-8
Codec ID : S_TEXT/UTF8
Codec ID/Info : UTF-8 Plain Text
Title : Українські (форсовані)
Language : Ukrainian
Default : Yes
Forced : Yes
Скріншоти




Джерело:
Особиста оцінка: 9 - давно не бачив настільки якісне кіно


 Трекер:    Зареєстрований   

Завантажити / скачати фільм українською



відео для новачків



 Зареєстрований:   2015-11-25 17:00
 Розмір:   4.96 GB 
 Оцінка фільму:   9.5/10 (Голосів: 10)
   
bot 
робот


З нами з: 30.09.07
Востаннє: 26.05.05
Повідомлень: 16005

2015-11-25 09:46  
Тему перенесено з Фільми в HD до форуму Анонси релізів


Drool

bot 
робот


З нами з: 30.09.07
Востаннє: 26.05.05
Повідомлень: 16005

2015-11-25 16:59  
Тему перенесено з Анонси релізів до форуму Фільми в HD


Drool

Ваш часовий пояс: GMT + 2 Години

Нова тема   Відповісти