Завантажити та скачати торренти українською


Нові коментарі

Нова тема   Відповісти
Автор Повідомлення
juzepe 
Новенький


З нами з: 13.06.15
Востаннє: 12.09.16
Повідомлень: 1

2015-11-15 15:36  
Шукаю кіно контент в 4к
ютуб не попонувати)
cyclone2000 
Частий відвідувач


З нами з: 09.12.07
Востаннє: 07.12.16
Повідомлень: 29

2015-11-15 20:17  
Тут http://4k.com/movies/ ситуація, що була актуальна минулого місяця. Контенту, на жаль, ще мало. Та й у сервісів не вистачить потужностей, що б транслювати масово 4к, а у операторів мереж та CDN компаній поки що канали не розраховані теж.
chіef 
Поважний учасник


З нами з: 20.04.15
Востаннє: 06.12.16
Повідомлень: 209

2015-11-15 20:32  
Флейтист нас врятує)
Яку швидкість інтернету потрібно, щоб дивитися онлайн телебачення у 4к? Швидкість мого інтернету 15мбіт/с, чи цього буде достатньо?
cyclone2000 
Частий відвідувач


З нами з: 09.12.07
Востаннє: 07.12.16
Повідомлень: 29

2015-11-15 21:23  
chіef

Нажаль 15 Mbps буде замало. Можу зняти тільки мета інформацію з 4к відео знятого на LG G3. 56 секунд, 201 МБ, 30 Mbps. Фільм може мати менший бітрейт, але навряд менше 15 Mbps.

Цитата:

$ mediainfo 2015-08-17\ 08.24.33.mp4
General
Complete name : 2015-08-17 08.24.33.mp4
Format : MPEG-4
Format profile : Base Media / Version 2
Codec ID : mp42
File size : 201 MiB
Duration : 55s 978ms
Overall bit rate : 30.1 Mbps
Performer : LGE
Encoded date : UTC 2015-08-17 05:24:33
Tagged date : UTC 2015-08-17 05:24:33

Video
ID : 1
Format : AVC
Format/Info : Advanced Video Codec
Format profile : [email protected]
Format settings, CABAC : Yes
Format settings, ReFrames : 1 frame
Format settings, GOP : M=1, N=30
Codec ID : avc1
Codec ID/Info : Advanced Video Coding
Duration : 55s 752ms
Bit rate : 30.0 Mbps
Width : 3 840 pixels
Height : 2 160 pixels
Display aspect ratio : 16:9
Frame rate mode : Variable
Frame rate : 29.416 fps
Minimum frame rate : 9.802 fps
Maximum frame rate : 30.252 fps
Color space : YUV
Chroma subsampling : 4:2:0
Bit depth : 8 bits
Scan type : Progressive
Bits/(Pixel*Frame) : 0.123
Stream size : 199 MiB (99%)
Title : VideoHandle
Language : English
Encoded date : UTC 2015-08-17 05:24:33
Tagged date : UTC 2015-08-17 05:24:33
mdhd_Duration : 55752

Audio
ID : 2
Format :
Format/Info : Advanced Audio Codec
Format profile : LC
Codec ID : 40
Duration : 55s 978ms
Source duration : 56s 76ms
Source_Duration_FirstFrame : 97ms
Bit rate mode : Constant
Bit rate : 156 Kbps
Nominal bit rate : 96.0 Kbps
Channel(s) : 2 channels
Channel positions : Front: L R
Sampling rate : 48.0 KHz
Compression mode : Lossy
Stream size : 1.04 MiB (1%)
Source stream size : 1.04 MiB (1%)
Title : SoundHandle
Language : English
Encoded date : UTC 2015-08-17 05:24:33
Tagged date : UTC 2015-08-17 05:24:33
mdhd_Duration : 55978
Ваш часовий пояс: GMT + 2 Години

Нова тема   Відповісти