Завантажити та скачати торренти українською


Юлія Рай | Дискографія [2 альбоми + 1 збірка] (2006-2007) [APE] | Pop

Нові коментарі

Нова тема   Відповісти
Останній раз роздавалося Ruslan911 (2016-12-07)
Автор Повідомлення
plyrvt 
VIP


З нами з: 03.12.08
Востаннє: 03.12.16
Повідомлень: 398

2009-08-17 17:27  
Юлія Рай | Дискографія [2 альбоми + 1 збірка] (2006-2007) [APE] | Pop



Стиль: Pop
Країна, місто: Україна, Львів-Київ
Сайти: Офіційний сайт
Видавець: Artur Music, GoldenMusic.ua
Виконавці:
Юлія Романівна Бодай (15.12.1981)
Альбоми:
2006 - Річка


01 - Річка - 3:22
02 - Ти мене полюбиш - 3:26
03 - Рідний-рідний - 3:22
04 - Мама! - 3:46
05 - Сам По Собі - 3:59
06 - Ти з іншої планети - 3:24
07 - Вітер - 3:54
08 - Один лиш раз - 2:53
09 - Мачо - 3:49
10 - А я люблю - 3:30
11 - Балада про мою землю - 3:09
12 - Ремічка - 3:34
13 - Вітер (інструменталка) - 4:04
14 - Річка (інструменталка) - 2:36

Тривалість: 00:48:49
Мова: українська
Видавець: Artur Music
EAC Log
EAC extraction logfile from 25. November 2006, 14:23 for CD
Юлія Рай / Річка

Used drive : ASUS CB-5216A Adapter: 0 ID: 1
Read mode : Secure with NO C2, accurate stream, NO disable cache
Combined read/write offset correction : 0
Overread into Lead-In and Lead-Out : No

Used output format : Internal WAV Routines
44.100 Hz; 16 Bit; Stereo

Other options :
Fill up missing offset samples with silence : Yes
Delete leading and trailing silent blocks : No
Native Win32 interface for Win NT & 2000

Range status and errors
Selected range
Filename F:\Music\Ukrainian\Julia_Raj\Юлія Рай - Річка.wav

Peak level 97.7 %
Range quality 100.0 %
CRC 1E0B0C56
Copy OK

No errors occured

End of status report
Audiochecker Log
AUDIOCHECKER v2.0 beta (build 457) - by Dester - [email protected]
~~~~~~~~~~~~~~~~~~~~~~~~~~~~~~~~~~
-=== DO NOT EDIT THIS FILE! ===-

Path: ...\2006 - Річка

01 -=- 01 - Річка.wav -=- CDDA (100%)
02 -=- 02 - Ти мене полюбиш.wav -=- CDDA (100%)
03 -=- 03 - Рідний-рідний.wav -=- CDDA (100%)
04 -=- 04 - Мама!.wav -=- CDDA (99%)
05 -=- 05 - Сам По Собі.wav -=- CDDA (100%)
06 -=- 06 - Ти з іншої планети.wav -=- CDDA (100%)
07 -=- 07 - Вітер.wav -=- CDDA (100%)
08 -=- 08 - Один лиш раз.wav -=- CDDA (100%)
09 -=- 09 - Мачо.wav -=- MPEG (95%)
10 -=- 10 - А я люблю.wav -=- CDDA (100%)
11 -=- 11 - Балада про мою землю.wav -=- CDDA (100%)
12 -=- 12 - Ремічка.wav -=- CDDA (100%)
13 -=- 13 - Вітер (інструменталка).wav -=- CDDA (100%)
14 -=- 14 - Річка (інструменталка).wav -=- CDDA (100%)

Summary 93,14% CDDA

155343972
2007 - Ти мене полюбиш


01 - Річка (2002) - 3:07
02 - Мама (Bossa Nova) - 3:43
03 - А я люблю - 3:43
04 - Ти мене полюбиш - 3:24
05 - Вітер - 4:07
06 - Заворожене щастя - 3:12
07 - Балада про мою землю (з дитячим хором) - 3:07
08 - Hello - 4:08
09 - Ти мене полюбиш (launge) - 3:34
10 - Балада про мою землю (інструментальна версія) - 3:40
11 - Річка (karaoke) - 2:46
12 - Ти мене полюбиш (karaoke) - 3:23

Тривалість: 00:41:53
Видавець: Artur music
Мова: українська (01-07, 09), англійська (08)
EAC Log
Exact Audio Copy V0.99 prebeta 5 from 4. May 2009

EAC extraction logfile from 19. October 2009, 12:52

Юлія Рай / Ти мене полюбиш

Used drive : HL-DT-STDVDRAM GSA-H10N Adapter: 0 ID: 1

Read mode : Secure
Utilize accurate stream : Yes
Defeat audio cache : Yes
Make use of C2 pointers : No

Read offset correction : 667
Overread into Lead-In and Lead-Out : No
Fill up missing offset samples with silence : Yes
Delete leading and trailing silent blocks : No
Null samples used in CRC calculations : No
Used interface : Native Win32 interface for Win NT & 2000

Used output format : Monkey's Audio Lossless Encoder v3.99 DLL
Sample format : High Lossless Compression

TOC of the extracted CD

Track | Start | Length | Start sector | End sector
---------------------------------------------------------
1 | 0:00.00 | 3:07.18 | 0 | 14042
2 | 3:07.18 | 3:42.59 | 14043 | 30751
3 | 6:50.02 | 3:43.28 | 30752 | 47504
4 | 10:33.30 | 3:23.51 | 47505 | 62780
5 | 13:57.06 | 4:06.44 | 62781 | 81274
6 | 18:03.50 | 3:12.25 | 81275 | 95699
7 | 21:16.00 | 3:07.07 | 95700 | 109731
8 | 24:23.07 | 4:08.20 | 109732 | 128351
9 | 28:31.27 | 3:34.27 | 128352 | 144428
10 | 32:05.54 | 3:39.53 | 144429 | 160906
11 | 35:45.32 | 2:45.67 | 160907 | 173348
12 | 38:31.24 | 3:22.43 | 173349 | 188541
13 | 44:25.67 | 2:42.05 | 199942 | 212096

Range status and errors

Selected range

Filename E:\Music3\Ukrainian\Р\Рай Юлія\2007 - Ти мене полюбиш\2007 - Ти мене полюбиш.ape

Peak level 95.5 %
Range quality 100.0 %
Test CRC 9669EFD2
Copy CRC 9669EFD2
Copy OK

No errors occurred

AccurateRip summary

Track 1 not present in database
Track 2 not present in database
Track 3 not present in database
Track 4 not present in database
Track 5 not present in database
Track 6 not present in database
Track 7 not present in database
Track 8 not present in database
Track 9 not present in database
Track 10 not present in database
Track 11 not present in database
Track 12 not present in database

None of the tracks are present in the AccurateRip database

End of status report
Audiochecker Log
AUDIOCHECKER v2.0 beta (build 457) - by Dester - [email protected]
~~~~~~~~~~~~~~~~~~~~~~~~~~~~~~~~~~
-=== НЕ РЕДАКТИРУЙТЕ ЭТОТ ФАЙЛ! ===-

Путь: ...\2007 - Ти мене полюбиш

01 -=- 01 - Річка (2002).wav -=- MPEG (95%)
02 -=- 02 - Мама (Bossa Nova).wav -=- CDDA (99%)
03 -=- 03 - А я люблю.wav -=- CDDA (100%)
04 -=- 04 - Ти мене полюбиш.wav -=- CDDA (100%)
05 -=- 05 - Вітер.wav -=- CDDA (100%)
06 -=- 06 - Заворожене щастя.wav -=- CDDA (100%)
07 -=- 07 - Балада про мою землю (з дитячим хором).wav -=- CDDA (100%)
08 -=- 08 - Hello.wav -=- CDDA (100%)
09 -=- 09 - Ти мене полюбиш (launge).wav -=- ERROR
10 -=- 10 - Балада про мою землю (інструментальна версія).wav -=- CDDA (99%)
11 -=- 11 - Річка (karaoke).wav -=- MPEG (95%)
12 -=- 12 - Ти мене полюбиш (karaoke).wav -=- CDDA (100%)

Сводка 82,55% CDDA

262642980
Data CD

Якість:
кодек: H264
розмір кадру: 320x240 @ 29.97fps

Аудіо: мова: українська
кодек: 48000Hz stereo
бітрейт: 256 кбіт/сек

Ulia_Ray.mp4 (Тривалість: 00:03:43, бітрейт відео 1280 кбіт/сек)


2007 - Кращі пісні


01 - Річка (2002) - 3:11
02 - Ти мене полюбиш (Launge) - 3:38
03 - Мачо - 3:53
04 - Мама - 3:48
05 - Заворожене щастя - 3:16
06 - Рідний-рідний - 3:26
07 - Вітер - 3:58
08 - Ти з іншої планети - 3:28
09 - Балада про землю (з дитячим хором) - 3:11
10 - А я люблю - 3:47
11 - Сам по собі - 4:03
12 - Один лиш раз - 2:57
13 - Ремічка - 3:38
14 - Річка (караоке) - 2:50
15 - Ти мене полюбиш (караоке) - 3:23

Тривалість: 00:52:27
Мова: українська
Видавець: GoldenMusic.ua
EAC Log
Exact Audio Copy V0.99 prebeta 5 from 4. May 2009

EAC extraction logfile from 6. July 2009, 15:45

Юлія Рай / Кращі пісні

Used drive : HL-DT-STDVDRAM GSA-H10N Adapter: 0 ID: 1

Read mode : Secure
Utilize accurate stream : Yes
Defeat audio cache : Yes
Make use of C2 pointers : No

Read offset correction : 667
Overread into Lead-In and Lead-Out : No
Fill up missing offset samples with silence : Yes
Delete leading and trailing silent blocks : No
Null samples used in CRC calculations : Yes
Used interface : Native Win32 interface for Win NT & 2000

Used output format : Monkey's Audio Lossless Encoder v3.99 DLL
Sample format : High Lossless Compression

TOC of the extracted CD

Track | Start | Length | Start sector | End sector
---------------------------------------------------------
1 | 0:00.00 | 3:11.18 | 0 | 14342
2 | 3:11.18 | 3:38.27 | 14343 | 30719
3 | 6:49.45 | 3:52.67 | 30720 | 48186
4 | 10:42.37 | 3:47.56 | 48187 | 65267
5 | 14:30.18 | 3:16.25 | 65268 | 79992
6 | 17:46.43 | 3:25.57 | 79993 | 95424
7 | 21:12.25 | 3:58.17 | 95425 | 113291
8 | 25:10.42 | 3:28.17 | 113292 | 128908
9 | 28:38.59 | 3:11.07 | 128909 | 143240
10 | 31:49.66 | 3:47.28 | 143241 | 160293
11 | 35:37.19 | 4:02.44 | 160294 | 178487
12 | 39:39.63 | 2:56.74 | 178488 | 191761
13 | 42:36.62 | 3:38.09 | 191762 | 208120
14 | 46:14.71 | 2:49.67 | 208121 | 220862
15 | 49:04.63 | 3:22.44 | 220863 | 236056
16 | 54:59.32 | 19:48.53 | 247457 | 336609

Range status and errors

Selected range

Filename E:\Music3\Ukrainian\Р\Рай Юлія\2007 - Кращі пісні\Юлія Рай - Кращі пісні.ape

Peak level 94.9 %
Range quality 100.0 %
Test CRC 4364E9CE
Copy CRC 4364E9CE
Copy OK

No errors occurred

End of status report
Audiochecker Log
AUDIOCHECKER v2.0 beta (build 457) - by Dester - [email protected]
~~~~~~~~~~~~~~~~~~~~~~~~~~~~~~~~~~
-=== DO NOT EDIT THIS FILE! ===-

Path: ...\2007 - Кращі пісні

01 -=- 01 - Річка (2002).wav -=- MPEG (95%)
02 -=- 02 - Ти мене полюбиш (Launge).wav -=- ERROR
03 -=- 03 - Мачо.wav -=- MPEG (95%)
04 -=- 04 - Мама.wav -=- CDDA (100%)
05 -=- 05 - Заворожене щастя.wav -=- CDDA (100%)
06 -=- 06 - Рідний-рідний.wav -=- CDDA (100%)
07 -=- 07 - Вітер.wav -=- CDDA (100%)
08 -=- 08 - Ти з іншої планети.wav -=- CDDA (100%)
09 -=- 09 - Балада про землю (з дитячим хором).wav -=- CDDA (100%)
10 -=- 10 - А я люблю.wav -=- CDDA (99%)
11 -=- 11 - Сам по собі.wav -=- CDDA (100%)
12 -=- 12 - Один лиш раз.wav -=- CDDA (100%)
13 -=- 13 - Ремічка.wav -=- CDDA (100%)
14 -=- 14 - Річка (караоке).wav -=- MPEG (95%)
15 -=- 15 - Ти мене полюбиш (караоке).wav -=- CDDA (100%)

Summary 79,57% CDDA

19967972
Data CD

Якість:
кодек: MPEG 2 (SVCD/DVD)

Аудіо: мова: українська
кодек: Mpeg-1 audio Layer 2, 44100 кГц
бітрейт: 192 кбіт/сек

Мама.mpg (Тривалість: 00:03:43, розмір кадру: 480x576, бітрейт відео 645 кбіт/сек)




Річка.mpg (Тривалість: 00:03:26, розмір кадру: 480x576, бітрейт відео 534 кбіт/сек)




Ты мене полюбиш.mpg (Тривалість: 00:03:22, розмір кадру: 320x240 (4:3), бітрейт відео 1436 кбіт/сек)


Тривалість: 02:23:09
Мова: українська
Аудіо-кодек: APE
Бітрейт: lossless (~859-917 кбіт/сек)
Джерело: власний ріп
ОНОВЛЕНО 19.10.2009
Додано недостаючий альбом "2007 - Ти мене полюбиш" (embedded EAC/audiochecker/CUE)


Золотий реліз (завантажене не впливає на рейтинг)
 Трекер:    Зареєстрований   

Завантажити / скачати українську музику



відео для новачків



 Зареєстрований:   2009-10-19 12:38
 Розмір:   1.08 GB 
 Оцінка музики:   9.7/10 (Голосів: 24)
   
aJJ 
Новенький


З нами з: 25.02.09
Востаннє: 10.07.15
Повідомлень: 23

2009-08-17 22:30  
А в mp3 або ogg можна, а то мій ipod таке не читає
plyrvt 
VIP


З нами з: 03.12.08
Востаннє: 03.12.16
Повідомлень: 398

2009-08-17 22:59  
aJJ скачай і конвертуй в що завгодно. lossy релізи я робити не планую. lossless тим хороший, що кожен може конвертувати його в улюблений формат, улюбленим кодером, в улюблений бітрейт та улюблені налаштування.
EL Barto 
Відео Гуртом - спорт
Відео Гуртом - спорт


З нами з: 09.05.09
Востаннє: 07.02.15
Повідомлень: 206

2009-08-18 08:03  
Ты мене полюбиш.mpg (Тривалість: 00:03:22, розмір кадру: 320x240 (4:3), бітрейт відео 1436
jinotot 
Почесний оцифрувальник літератури


З нами з: 28.01.09
Востаннє: 04.12.16
Повідомлень: 3235

2009-08-18 10:07  
plyrvt, якщо в роздачі присутні кліпи, то в описі релізу вкажи, будь ласка, тех. дані кліпів і зроби скріншоти -- хоча б по одному на кліп. Буду вдячний!
plyrvt 
VIP


З нами з: 03.12.08
Востаннє: 03.12.16
Повідомлень: 398

2009-08-18 10:11  
Nazarko41 ага, а ще на обкладинці "Включая суперхіт Ти мене полюбиш" Tongue up (2)

jinotot так зробив же відразу опис відео по повній програмі, в спойлері "Data CD"

jinotot 
Почесний оцифрувальник літератури


З нами з: 28.01.09
Востаннє: 04.12.16
Повідомлень: 3235

2009-08-18 10:36  
plyrvt, вибач, неуважно шукав... Дякую дуже!
Ще ввечері прогляну, але, думаю, питань не виникне Happy
Дякую за роботу!

Vedmochka 
Новенький


З нами з: 13.09.09
Востаннє: 19.09.09
Повідомлень: 1

2009-09-13 14:14  
plyrvt, спасибо!
Tyler 
Новенький


З нами з: 24.03.09
Востаннє: 05.09.16
Повідомлень: 21

2009-09-14 13:45  
Лише один альбом і вже збірка "Краще" (ті ж самі пісні лише у другому порядку) Wide grin Wide grin Wide grin
plyrvt 
VIP


З нами з: 03.12.08
Востаннє: 03.12.16
Повідомлень: 398

2009-09-29 14:19  
Tyler Лише один альбом і вже збірка "Краще" (ті ж самі пісні лише у другому порядку)

Альбоми формально два. Збірка була випущена як додатковий тираж альбому "2007 - Ти мене полюбиш". Але так як помінявся лейбл ("2007 - Ти мене полюбиш" невеликим тиражем випустив Artur Music) то додали стару пісню "Заворожене щастя" і надрукували той самий альбом вже як збірку (+бонус матеріал)

Всього в доробку Юлії - 13 пісень
які так розподілилися по альбомах


plyrvt 
VIP


З нами з: 03.12.08
Востаннє: 03.12.16
Повідомлень: 398

2009-10-19 12:50  
Прохання до сідерів перекачати торент у зв'язку з оновленням
lpershyi 
Попереджень: 2
Попереджень: 2 


З нами з: 04.01.11
Востаннє: 30.11.16
Повідомлень: 2622

2013-07-27 01:36  
шкода, що вказаний тут в релізі оф. сайт вже не існує Sad (1)
musicfan 
Модератор музики


З нами з: 27.01.09
Востаннє: 05.12.16
Повідомлень: 893

2013-07-28 08:32  
lpershyi написано:
шкода, що вказаний тут в релізі оф. сайт вже не існує

"Співачка, авторка легендарної пісні “Річка” (“Двічі в одну річку не ввійдеш”) Юлія Рай чотири роки тому зникла з поля зору українських меломанів. Причина поважна: Юля вийшла заміж за австралійця і переїхала жити на Зелений континент. Живе щасливе українсько-австралійське подружжя у всесвітньо відомому місті-курорті Золотий Берег (Gold Coast), який називають «раєм для серфінгістів»"-думаю це все пояснює

Vtapo4kax 
Новенький


З нами з: 21.10.14
Востаннє: 30.11.16
Повідомлень: 11

2015-06-26 00:03  
plyrvt написано:
lossless

Цитата:
lossless це сжатий wav без втрати якості. Приклад: Запакуем архіватором документ world з даними вагою 10 мб в zip архів. Після зжимання він буде важити вже не 10 а 5мб . А якщо розархівувати zip архів то цей документ буде важити як був 10 мб і всі дані у ньому залиишутся без змін. lossless це теж саме, що zip архів зжимае waw без втрати якості а при розкодуванні конвектором приймає свої істинні дані.

assonik 
Новенький


З нами з: 17.10.12
Востаннє: 08.11.16
Повідомлень: 13

2015-09-12 09:58  
Шкода не спивае
ярий тверезенник 
VIP


З нами з: 29.01.12
Востаннє: 07.12.16
Повідомлень: 1594

2015-09-14 14:06  
колись думав що Бодай і Рай це дві різні співачки, а це одна і та сама, і ще хтось Юлії з двома прізвищами якись фраєр добряче насолив що написала пісню "Двічі в одну річку не ввійдеш"
assonik 
Новенький


З нами з: 17.10.12
Востаннє: 08.11.16
Повідомлень: 13

2015-10-24 04:00  
чому альбомов не було писля 2007
ярий тверезенник 
VIP


З нами з: 29.01.12
Востаннє: 07.12.16
Повідомлень: 1594

2015-10-24 16:02  
ніби в Італію поїхала до мами
Vtapo4kax 
Новенький


З нами з: 21.10.14
Востаннє: 30.11.16
Повідомлень: 11

2016-10-23 21:10  
Станьте хто небудь на роздачу!!! 3 день уже підключається до пірів!!! Дякую
Ваш часовий пояс: GMT + 2 Години

Нова тема   Відповісти