Завантажити та скачати торренти українською


Термінатор. Генезис / Terminator. Genisys (2015) 720p-mini (60 fps)

Нові коментарі

Нова тема   Відповісти
Автор Повідомлення
Drool 
VIP


З нами з: 17.04.10
Востаннє: 09.12.16
Повідомлень: 1270

2015-11-12 13:52  
Термінатор. Генезис / Terminator. Genisys (2015) 720p-mini (60 fps)

Жанр: екшн, пригодницький, фантастика, трилер
Країна: США



Кінокомпанія: Paramount Pictures, Skydance Productions
Режисер: Алан Тейлор
Актори: Арнольд Шварценеґер, Джейсон Кларк, Емілія Кларк, Джей Кортні, Дж. К. Сіммонс, Дайо Окенайї, Метт Сміт, Кортні Б. Венс, Бен Хан Лі, Сандрін Голт та інші

Сюжет:
Постійні занурення людей і термінаторів в минуле щоб змінити майбутнє призводять до перелому в полотні часу. Тепер, відправлений Джоном Коннором солдат Кайл Різ, покликаний захищати матір надії людства, потрапляє у світ, в якому все трохи інакше, ніж він думав. Він зустрічає постарілу модель робота Т-800, який був присланий на захист Сари з іншого витка часу. Ворог же тепер наступає не тільки з майбутнього, але й з минулого. Проти Різа, його підзахисної і трохи зношеного Т-800 виступають відразу кілька моделей кіборгів-убивць. Але найстрашнішим було побачити самого Джона Коннора, який прибув один з вельми неприємною місією...


Тривалість: 02:05:43
Якість: 720p-mini
Відео:
кодек:
розмір кадру: 1280x536
бітрейт: 3872 кб/с
crf: 18.0
кадрів на секунду: 59.940 к/с

Аудіо:
мова: українська
переклад: професійний дубльований
кодек: 5.1
бітрейт: 448 кб/с
MediaInfo
General
Unique ID : 276552985070705831799311361429381021930 (0xD00E2AE24FAAC47CFC381DC72E7F80EA)
Complete name : /mnt/disk_d/Video/Terminator.Genisys.2015.Ukr.Dub..720p-mini.60fps.mkv
Format : Matroska
Format version : Version 4 / Version 2
File size : 3.87 GiB
Duration : 2h 5mn
Overall bit rate : 4 402 Kbps
Movie name : Термінатор. Генезис / Terminator. Genisys (2015) 720p-mini [60 fps] [NNNB]
Encoded date : UTC 2015-12-01 06:38:19
Writing application : mkvmerge v8.5.0 ('Vanishing Act') 64bit
Writing library : libebml v1.3.1 + libmatroska v1.4.2
DURATION : 02:05:42.976000000
NUMBER_OF_FRAMES : 235718
NUMBER_OF_BYTES : 422406656
_STATISTICS_WRITING_APP : mkvmerge v8.5.0 ('Vanishing Act') 64bit
_STATISTICS_WRITING_DATE_UTC : 2015-12-01 06:38:19
_STATISTICS_TAGS : BPS DURATION NUMBER_OF_FRAMES NUMBER_OF_BYTES

Video
ID : 1
Format : AVC
Format/Info : Advanced Video Codec
Format profile : [email protected]
Format settings, CABAC : Yes
Format settings, ReFrames : 9 frames
Codec ID : V_MPEG4/ISO/AVC
Duration : 2h 5mn
Bit rate : 3 867 Kbps
Width : 1 280 pixels
Height : 536 pixels
Display aspect ratio : 2.40:1
Frame rate mode : Constant
Frame rate : 59.880 fps
Original frame rate : 59.940 fps
Color space : YUV
Chroma subsampling : 4:2:0
Bit depth : 8 bits
Scan type : Progressive
Bits/(Pixel*Frame) : 0.094
Stream size : 3.40 GiB (88%)
Title : Термінатор. Генезис / Terminator. Genisys (2015) 720p-mini [60 fps] [NNNB]
Writing library : core 146 r2538 121396c
Encoding settings : cabac=1 / ref=9 / deblock=1:0:0 / analyse=0x3:0x113 / me=umh / subme=10 / psy=1 / psy_rd=1.00:0.00 / mixed_ref=1 / me_range=24 / chroma_me=1 / trellis=2 / 8x8dct=1 / cqm=0 / deadzone=21,11 / fast_pskip=0 / chroma_qp_offset=-2 / threads=12 / lookahead_threads=1 / sliced_threads=0 / nr=0 / decimate=1 / interlaced=0 / bluray_compat=0 / constrained_intra=0 / bframes=5 / b_pyramid=2 / b_adapt=2 / b_bias=0 / direct=3 / weightb=1 / open_gop=0 / weightp=2 / keyint=250 / keyint_min=25 / scenecut=40 / intra_refresh=0 / rc_lookahead=40 / rc=crf / mbtree=0 / crf=18.0 / qcomp=0.60 / qpmin=0 / qpmax=69 / qpstep=4 / vbv_maxrate=14000 / vbv_bufsize=14000 / crf_max=0.0 / nal_hrd=none / filler=0 / ip_ratio=1.40 / pb_ratio=1.30 / aq=3:1.00
Default : Yes
Forced : Yes
DURATION : 02:05:42.969000000
NUMBER_OF_FRAMES : 452126
NUMBER_OF_BYTES : 3724794423
_STATISTICS_WRITING_APP : mkvmerge v8.5.0 ('Vanishing Act') 64bit
_STATISTICS_WRITING_DATE_UTC : 2015-12-01 06:38:19
_STATISTICS_TAGS : BPS DURATION NUMBER_OF_FRAMES NUMBER_OF_BYTES

Audio
ID : 2
Format : AC-3
Format/Info : Audio Coding 3
Mode extension : CM (complete main)
Format settings, Endianness : Big
Codec ID : A_AC3
Duration : 2h 5mn
Bit rate mode : Constant
Bit rate : 448 Kbps
Channel(s) : 6 channels
Channel positions : Front: L C R, Side: L R, LFE
Sampling rate : 48.0 KHz
Compression mode : Lossy
Stream size : 403 MiB (10%)
Title : Рідна мова ( 5.1 448 kbps) DVD
Language : Ukrainian
Default : Yes
Forced : Yes
Скріншоти






Джерело:
Особиста оцінка: 6 - третій сорт - не брак


 Трекер:    Зареєстрований   

Завантажити / скачати фільм українською



відео для новачків



 Зареєстрований:   2015-12-01 08:48
 Розмір:   3.87 GB 
 Оцінка фільму:   8.9/10 (Голосів: 21)
   
korsar1488 
Новенький


З нами з: 28.07.12
Востаннє: 01.12.16
Повідомлень: 10

2015-11-12 16:01  
200 мб завантажив за годину. Думаю, до вихідних встигну. ))
Drool 
VIP


З нами з: 17.04.10
Востаннє: 09.12.16
Повідомлень: 1270

2015-11-12 16:21  
korsar1488 написано:
200 мб завантажив за годину. Думаю, до вихідних встигну. ))

Дуже люблю роздавати в режимі суперсіда - відразу видно, як інші порти зажимають і роздавати не хочуть Wink (1)

EvGaS 
Відео Гуртом - підтримка та поширення
Відео Гуртом - підтримка та поширення


З нами з: 27.02.12
Востаннє: 09.12.16
Повідомлень: 2150

2015-11-12 16:50  
Drool написано:
Дуже люблю роздавати в режимі суперсіда - відразу видно, як інші порти зажимають і роздавати не хочуть


Підкину дров Happy

korsar1488 
Новенький


З нами з: 28.07.12
Востаннє: 01.12.16
Повідомлень: 10

2015-11-12 19:13  
Ххххуухх, нарешті !!! Аж спітнів з нетерпіння ))) Дякую за кіно !
Drool 
VIP


З нами з: 17.04.10
Востаннє: 09.12.16
Повідомлень: 1270

2015-12-01 10:17  
Заміна звукової доріжки за ліцензію з DVD!

Додано через 1 годину 26 хвилин 35 секунд:

Роздаю в режимі супер-сід. Хто закрив порти та/або затискає вихідну швидкість - сам собі злобний буратіно Wink (1)

Ваш часовий пояс: GMT + 2 Години

Нова тема   Відповісти