Завантажити та скачати торренти українською


Жнива / The Reaping (2007) 720p Ukr/Eng | Sub Eng

Нові коментарі

Нова тема   Відповісти
Автор Повідомлення
braveboy 
Відео Гуртом - команда HD
Відео Гуртом - команда HD


З нами з: 15.06.10
Востаннє: 29.10.16
Повідомлень: 958

2015-11-07 21:59  

Жнива / The Reaping (2007) 720p Ukr/Eng | Sub Eng


Жнива / The Reaping (2007) 720p Ukr/Eng | Sub Eng


Жанр: трилер, жахи
Країна: США


Кінокомпанія: Warner Bros. Pictures, Dark Castle Entertainment, Chime Productions LLC
Режисер: Стівен Хопкінс
Актори: Хіларі Суонк, Девід Морріссі, Ідріс Ельба, Аннасофія Робб, Стюарт Грір, Девід Дженсен, Вільям Регсдейл

Сюжет:
Кетрін Уїнтер, християнська місіонерка, яка втратила віру після трагічної загибелі своїх батьків, стала знаменита своїм оригінальним хобі - розвінчанням релігійних феноменів і міфів. Придумавши собі нове "завдання", вона вирушає в маленьке, Богом забуте містечко в штаті Луїзіана для розслідування подій, підозріло схожих на втілення в життя біблійні прокляття.

Тривалість: 01:39:24
Якість: 720p
Відео:
кодек:
розмір кадру: 1280 х 534
бітрейт: 5411 кб/с

Аудіо # 1:
мова: українська
переклад: двоголосий закадровий
кодек: 2.0
бітрейт: 192 кб/с

Аудіо # 2:
мова: англійська
переклад: оригінал
кодек: 5.1
бітрейт: 640 кб/с

Джерело озвучення:

Субтитри:
мова: англійська
тип: програмні (м'які)
формат: *.srt
MediaInfo
Video
ID : 1
Format : AVC
Format/Info : Advanced Video Codec
Format profile : [email protected]
Format settings, CABAC : Yes
Format settings, ReFrames : 12 frames
Codec ID : V_MPEG4/ISO/AVC
Duration : 1h 39mn
Bit rate : 5 411 Kbps
Width : 1 280 pixels
Height : 534 pixels
Display aspect ratio : 2.40:1
Frame rate mode : Constant
Frame rate : 23.976 fps
Color space : YUV
Chroma subsampling : 4:2:0
Bit depth : 8 bits
Scan type : Progressive
Bits/(Pixel*Frame) : 0.330
Stream size : 3.67 GiB (85%)
Title : The Reaping (2007) 720p
Writing library : core 130 r2273 b3065e6
Encoding settings : cabac=1 / ref=12 / deblock=1:-3:-3 / analyse=0x3:0x113 / me=umh / subme=11 / psy=1 / psy_rd=1.00:0.00 / mixed_ref=1 / me_range=32 / chroma_me=1 / trellis=2 / 8x8dct=1 / cqm=0 / deadzone=21,11 / fast_pskip=0 / chroma_qp_offset=-2 / threads=12 / lookahead_threads=2 / sliced_threads=0 / nr=0 / decimate=1 / interlaced=0 / bluray_compat=0 / constrained_intra=0 / bframes=9 / b_pyramid=2 / b_adapt=2 / b_bias=0 / direct=1 / weightb=1 / open_gop=0 / weightp=2 / keyint=250 / keyint_min=23 / scenecut=40 / intra_refresh=0 / rc_lookahead=40 / rc=2pass / mbtree=0 / bitrate=5411 / ratetol=1.0 / qcomp=0.60 / qpmin=0 / qpmax=69 / qpstep=4 / cplxblur=20.0 / qblur=0.5 / vbv_maxrate=50000 / vbv_bufsize=62500 / nal_hrd=none / ip_ratio=1.40 / pb_ratio=1.30 / aq=1:1.00
Language : English
Default : Yes
Forced : No
DURATION : 01:39:23.541000000
NUMBER_OF_FRAMES : 142982
NUMBER_OF_BYTES : 4029157729
_STATISTICS_WRITING_APP : mkvmerge v7.8.0 ('River Man') 64bit built on Mar 27 2015 16:31:37
_STATISTICS_WRITING_DATE_UTC : 2015-11-07 19:49:28
_STATISTICS_TAGS : BPS DURATION NUMBER_OF_FRAMES NUMBER_OF_BYTES

Audio #1
ID : 2
Format : AC-3
Format/Info : Audio Coding 3
Mode extension : CM (complete main)
Format settings, Endianness : Big
Codec ID : A_AC3
Duration : 1h 39mn
Bit rate mode : Constant
Bit rate : 192 Kbps
Channel(s) : 2 channels
Channel positions : Front: L R
Sampling rate : 48.0 KHz
Bit depth : 16 bits
Compression mode : Lossy
Stream size : 136 MiB (3%)
Title : 2.0 @ 192 kbps [ICTV]
Language : Ukrainian
Default : Yes
Forced : No

Audio #2
ID : 3
Format : AC-3
Format/Info : Audio Coding 3
Mode extension : CM (complete main)
Format settings, Endianness : Big
Codec ID : A_AC3
Duration : 1h 39mn
Bit rate mode : Constant
Bit rate : 640 Kbps
Channel(s) : 6 channels
Channel positions : Front: L C R, Side: L R, LFE
Sampling rate : 48.0 KHz
Bit depth : 16 bits
Compression mode : Lossy
Stream size : 455 MiB (10%)
Title : 5.1 @ 640 kbps
Language : English
Default : No
Forced : No

Text
ID : 4
Format : UTF-8
Codec ID : S_TEXT/UTF8
Codec ID/Info : UTF-8 Plain Text
Title : Full
Language : English
Default : No
Forced : No

Menu
00:00:00.000 : :00:00:00.000
00:02:20.974 : :00:02:20.974
00:07:39.792 : :00:07:39.792
00:12:02.388 : :00:12:02.388
00:17:01.854 : :00:17:01.854
00:21:55.480 : :00:21:55.480
00:24:56.828 : :00:24:56.828
00:28:16.361 : :00:28:16.361
00:32:34.285 : :00:32:34.285
00:37:02.053 : :00:37:02.053
00:41:15.806 : :00:41:15.806
00:45:08.706 : :00:45:08.706
00:49:36.807 : :00:49:36.807
00:54:14.084 : :00:54:14.084
01:00:04.934 : :01:00:04.934
01:02:24.574 : :01:02:24.574
01:06:03.960 : :01:06:03.960
01:10:47.409 : :01:10:47.409
01:15:57.886 : :01:15:57.886
01:19:36.771 : :01:19:36.771
01:23:20.996 : :01:23:20.996
01:27:18.233 : :01:27:18.233
01:31:53.341 : :01:31:53.341
01:33:30.604 : :01:33:30.604
Скріншоти



Джерело:


 Трекер:    Зареєстрований   

Завантажити / скачати фільм українською



відео для новачків



 Зареєстрований:   2015-11-07 22:01
 Розмір:   4.33 GB 
 Оцінка фільму:   10/10 (Голосів: 2)
   
Інші релізи
   Жнива / The Reaping (2007) Skiff  5 / 0   1.45 GB   2011-09-09 22:32 
glasgalas 
Частий відвідувач


З нами з: 23.07.11
Востаннє: 06.12.16
Повідомлень: 30

2015-11-07 23:08  
як кіно?
Ваш часовий пояс: GMT + 2 Години

Нова тема   Відповісти