Завантажити та скачати торренти українською


VA - Шедеври Української Музики [5 CD] (2006) [APE] | Ethno/Folk/Pop

Нові коментарі

Нова тема   Відповісти
Автор Повідомлення
allod 
Новенький


З нами з: 05.02.09
Востаннє: 09.12.16
Повідомлень: 5

2009-08-16 20:05  
VA - Шедеври Української Музики [5 CD] (2006) [APE] | Ethno/Folk/Pop



Стиль: Ethno, Folk, Pop
Країна, місто: Україна
Видавець: Країна мрій
Збірки:
    Український Оперний Спів


    Пісні:
    01. Олена Слободяник, Олександр Таранец - Тихо над річкою (П.Батюк, С.Черкасенко) (3:47)
    02. Євгенія Мірошниченко - Чотири воли пасу я (нар., обр. А.Кос-Анатольський) (4:08)
    03. Зоя Гайдай, Іван Козловський - Дует Оксани і Андрія з опери "Запорожець за Дунаєм" (С.Гулак-Артемовський) (6:13)
    04. Валерій Буймістер - Чорні Брови (Д.Бонковський, обр. Ф.Надененка - К.Думитрашко) (3:40)
    05. Марія Литвиненко-Вольгемут, Іван Паторжинський - Дует Одарки і Карся з опери "Запорожець за Дунаєм" (С.Гулак-Артемовський) (8:34)
    06. Валерій Буй містер - Їхав Козак за Дунай (нар., обр Л.В. Бетховен) (1:57)
    07. Діана Петриненко - Нащо мені чорні брови (нар., обр Д. Борковського - Т.Шевченко) (4:05)
    08. Микола Кондратюк, Володимир Тимохін - Ти – любов моя (Г.Жуковський - О.Новицький) (3:13)
    09. Марія Литвиненко-Вольгемут - Пісня Одарки з опери "Запорожець за Дунаєм" (С.Гулак-Артемовський) (2:47)
    10. Михайло Раков, Олександр Таранець - Пливе човен (М.Лисенко - сл. нар.) (2:58)
    11. Бела Руденко - Соловейко (муз. і сл. М.Кропивницький) (4:44)
    12. Олександр Таранець, Володимир Зарков - Зоре вечорова (С.Козак - А.Малишко) (2:19)
    13. Костянтин Столяр - Сонце низенько (муз. і сл. М.Лисенко) (2:35)
    14. Ірина Зябченко - Ой, піду я межи гори (А.Кос-Анатольський) (4:21)
    Тривалість: 55:21
    Вміст log файлу:

    Exact Audio Copy V0.99 prebeta 3 from 28. July 2007

    Отчёт EAC об извлечении, выполненном 13. марта 2008, 19:57

    VA / Український оперний спів

    Дисковод: Optiarc DVD RW AD-7173A Adapter: 1 ID: 0

    Режим чтения : Достоверность
    Использование точного потока : Да
    Отключение кэша аудио : да
    Использование указателей C2 : Нет

    Коррекция смещения при чтении : 0
    Способность читать области Lead-in и Lead-out : Нет
    Заполнение пропущенных сэмплов тишиной : Да
    Удаление блоков с тишиной в начале и конце : Нет
    При вычислениях CRC использовались нулевые сэмплы : Да
    Интерфейс : Установленный внешний ASPI-интерфейс

    Выходной формат : Внутренние WAV-операции
    Формат сэмплов : 44.100 Гц; 16 бит; стерео

    TOC извлечённого CD

    Трек | Старт | Длительность | Начальный сектор | Конечный сектор
    ---------------------------------------------------------------------
    1 | 0:00.00 | 3:47.09 | 0 | 17033
    2 | 3:47.09 | 4:07.61 | 17034 | 35619
    3 | 7:54.70 | 6:12.53 | 35620 | 63572
    4 | 14:07.48 | 3:40.28 | 63573 | 80100
    5 | 17:48.01 | 8:33.46 | 80101 | 118621
    6 | 26:21.47 | 1:57.27 | 118622 | 127423
    7 | 28:18.74 | 4:04.67 | 127424 | 145790
    8 | 32:23.66 | 3:13.13 | 145791 | 160278
    9 | 35:37.04 | 2:46.72 | 160279 | 172800
    10 | 38:24.01 | 2:58.06 | 172801 | 186156
    11 | 41:22.07 | 4:43.46 | 186157 | 207427
    12 | 46:05.53 | 2:19.09 | 207428 | 217861
    13 | 48:24.62 | 2:35.10 | 217862 | 229496
    14 | 50:59.72 | 4:21.13 | 229497 | 249084

    Характеристики диапазона извлечения и сообщения об ошибках

    Выбранный диапазон

    Имя файла H:\muz\lossless\Шедеври української музики.lossless\Український оперний спів\VA - Український оперний спів.wav

    Пиковый уровень 96.6 %
    Качество диапазона 100.0 %
    CRC копии FC984D61
    Копирование... OK

    Ошибок не произошло

    Конец отчёта
    Українські Романси


    Пісні:
    01. Тарас Компаніченко, Ірина Кліменко - Згадай же, дівчино (нар.) (3:36)
    02. Світлана Криворучко, Володимир Миркотан - Місяць на небі (нар.) (3:11)
    03. тріо бандуристок Н.Павленко, В.Третьякова, Т.Поліщук - Гуцулка Ксеня (муз. і сл. Я.Барнич) (3:15)
    04. Святослав Пікульський - Не щебечи, соловейку (М.Глінка - В.Забіла) (3:30)
    05. Олена Соболєва - Місяцю ясний (С.Гулак-Артемовський) (4:07)
    06. Анатолій Мокренко - Ой ти, дівчино, з горіха зерня (А.Кос-Анатольський - І.Франко) (3:28)
    07. Тріо Маренич - Вже сонце низенько (нар.) (4:35)
    08. Тріо Байко - Ти до мене не ходи (нар.) (1:25)
    09. Дмитро Гнатюк - Гуде вітер (М.Глінка - В.Забіла) (4:09)
    10. Ніна Матвієнко - Сміються, плачуть солов'ї (муз. нар. - О.Олесь) (5:02)
    11. Василь Бокоч - Серенада (Я.Степовий - авт. сл. невід.) (2:55)
    12. Іван Козловський - Чорні брови, карі очі (нар.) (2:55)
    13. Дмитро Гнатюк - Рідна мати моя (П.Майборода - А.Малишко) (4:52)
    14. Гуртоправці - Надворі Червоніє (нар. - О.Олесь, обр.нар.) (2:43)
    Тривалість: 49:43
    Вміст log файлу:

    Exact Audio Copy V0.99 prebeta 3 from 28. July 2007

    Отчёт EAC об извлечении, выполненном 13. марта 2008, 21:46

    VA / Українські Романси

    Дисковод: Optiarc DVD RW AD-7173A Adapter: 1 ID: 0

    Режим чтения : Достоверность
    Использование точного потока : Да
    Отключение кэша аудио : Да
    Использование указателей C2 : Нет

    Коррекция смещения при чтении : 0
    Способность читать области Lead-in и Lead-out : Нет
    Заполнение пропущенных сэмплов тишиной : Да
    Удаление блоков с тишиной в начале и конце : Нет
    При вычислениях CRC использовались нулевые сэмплы : Да
    Интерфейс : Установленный внешний ASPI-интерфейс

    Выходной формат : Внутренние WAV-операции
    Формат сэмплов : 44.100 Гц; 16 бит; стерео

    TOC извлечённого CD

    Трек | Старт | Длительность | Начальный сектор | Конечный сектор
    ---------------------------------------------------------------------
    1 | 0:00.00 | 3:35.70 | 0 | 16194
    2 | 3:35.70 | 3:11.16 | 16195 | 30535
    3 | 6:47.11 | 3:15.29 | 30536 | 45189
    4 | 10:02.40 | 3:30.04 | 45190 | 60943
    5 | 13:32.44 | 4:07.04 | 60944 | 79472
    6 | 17:39.48 | 3:28.26 | 79473 | 95098
    7 | 21:07.74 | 4:34.53 | 95099 | 115701
    8 | 25:42.52 | 1:24.59 | 115702 | 122060
    9 | 27:07.36 | 4:08.60 | 122061 | 140720
    10 | 31:16.21 | 5:02.04 | 140721 | 163374
    11 | 36:18.25 | 2:55.36 | 163375 | 176535
    12 | 39:13.61 | 2:54.57 | 176536 | 189642
    13 | 42:08.43 | 4:51.41 | 189643 | 211508
    14 | 47:00.09 | 2:43.01 | 211509 | 223734

    Характеристики диапазона извлечения и сообщения об ошибках

    Выбранный диапазон

    Имя файла H:\muz\lossless\Шедеври української музики.lossless\Українські Романси\VA - Українські Романси.wav

    Пиковый уровень 96.6 %
    Качество диапазона 100.0 %
    CRC копии 1177DAA4
    Копирование... OK

    Ошибок не произошло

    Конец отчёта
    Українське Ретро


    Пісні:
    01. Тетяна Русова - Червона троянда (А.Горчинський - А.Татаренко) (3:36)
    02. Дмитро Гнатюк - Черемшина (В.Михайлюк - М.Юрійчук) (4:14)
    03. Петро Ретвицький, Олександр Таранець - Білий Сніг (О.Білаш - М.Ткач) (2:55)
    04. Микола Кондратюк - Ясени (О.Білаш - М.Ткач) (3:24)
    05. Костянтин Огнєвой - Іду я росами (В.Верменич - О.Богачук) (3:10)
    06. Костянтин Огнєвой - Кохана (І.Поклад - І.Барах) (2:30)
    07. Діана Петриненко - Кохання моє (Б.Буєвський - В.Малишко) (3:20)
    08. Людмила Маковецька, Олександр Трофимчук - Київський вальс (П.Майборода - А.Малишко) (4:46)
    09. хор. капела Українського радіо - Любов моя (П.Майборода - Т.Масенко) (4:40)
    10. Олександр Скачко - Може я тебе вигадав (А.Горчинський - Л.Татаренко) (2:40)
    11. Л.Чайковська - Намалюй мені ніч (М.Скорик - М.Петренко) (3:30)
    12. Олександр Скачко - Очі волошкові (С.Сабадаш - А.Драгомирецький) (3:01)
    13. вок. квартет та інстр. анс. під кер. Мирослава Скорика - Не топчіть конвалій (М.Скорик - Р.Братунь) (2:08)
    14. Дмитро Гнатюк - Пісня з полонини (С.Сабадаш - О.Пономаренко) (3:41)
    15. Олександр Таранець - Тільки в Києві (І.Шамо - М.Ткач) (3:00)
    16. Юлія Пєшковська - Троянди на пероні (А.Горчинський - О.Богачук) (2:31)
    17. Лідія Відаш - Відлуння кроків (муз. і сл. В.Івасюк) (3:03)
    Тривалість: 55:08
    Вміст log файлу:

    Exact Audio Copy V0.99 prebeta 3 from 28. July 2007

    Отчёт EAC об извлечении, выполненном 13. марта 2008, 19:41

    VA / Українське ретро

    Дисковод: Optiarc DVD RW AD-7173A Adapter: 1 ID: 0

    Режим чтения : Достоверность
    Использование точного потока : Да
    Отключение кэша аудио : да
    Использование указателей C2 : Нет

    Коррекция смещения при чтении : 0
    Способность читать области Lead-in и Lead-out : Нет
    Заполнение пропущенных сэмплов тишиной : Да
    Удаление блоков с тишиной в начале и конце : Нет
    При вычислениях CRC использовались нулевые сэмплы : Да
    Интерфейс : Установленный внешний ASPI-интерфейс

    Выходной формат : Внутренние WAV-операции
    Формат сэмплов : 44.100 Гц; 16 бит; стерео

    TOC извлечённого CD

    Трек | Старт | Длительность | Начальный сектор | Конечный сектор
    ---------------------------------------------------------------------
    1 | 0:00.00 | 3:36.00 | 0 | 16199
    2 | 3:36.00 | 4:13.46 | 16200 | 35220
    3 | 7:49.46 | 2:55.20 | 35221 | 48365
    4 | 10:44.66 | 3:24.18 | 48366 | 63683
    5 | 14:09.09 | 3:10.08 | 63684 | 77941
    6 | 17:19.17 | 2:29.59 | 77942 | 89175
    7 | 19:49.01 | 3:19.40 | 89176 | 104140
    8 | 23:08.41 | 4:45.74 | 104141 | 125589
    9 | 27:54.40 | 4:39.55 | 125590 | 146569
    10 | 32:34.20 | 2:40.16 | 146570 | 158585
    11 | 35:14.36 | 3:29.39 | 158586 | 174299
    12 | 38:44.00 | 3:01.33 | 174300 | 187907
    13 | 41:45.33 | 2:07.50 | 187908 | 197482
    14 | 43:53.08 | 3:41.36 | 197483 | 214093
    15 | 47:34.44 | 3:00.13 | 214094 | 227606
    16 | 50:34.57 | 2:30.53 | 227607 | 238909
    17 | 53:05.35 | 3:03.12 | 238910 | 252646

    Характеристики диапазона извлечения и сообщения об ошибках

    Выбранный диапазон

    Имя файла H:\muz\lossless\Шедеври української музики.lossless\Українське ретро\Українське ретро.wav

    Пиковый уровень 96.6 %
    Качество диапазона 98.7 %
    CRC копии BE1AD026
    Копирование завершено

    Ошибок не произошло

    Конец отчёта
    Українські Вокально-Інструментальні Ансамблі


    Пісні:
    01. Смерічка - Водограй (муз. і сл. В.Івасюк) (3:28)
    02. Калина - А ми удвох (О.Зуєв - О.Вратарьов) (2:47)
    03. Водограй - Три трембіти (М.Скорик - О.Вратарьов) (2:53)
    04. Смерічка - Червона рута (муз. і сл. В.Івасюк) (3:09)
    05. Червона Рута - Чичері (нар.) (3:39)
    06. Водограй - Дівчино мила (нар.) (2:55)
    07. Лідія відаш і анс. п/к Василя Петруся - Я піду в далекі гори (сл. і муз. В.Івасюк) (3:13)
    08. Кобза - Кохати час (О.Семенов - О.Вратарьов) (3:06)
    09. Візерунки шляхів - Коло млина калина (нар.) (3:03)
    10. Водограй - Несла дівчина воду (нар.) (2:44)
    11. Кобза - Ой, кинув я бук (нар.) (1:58)
    12. Два кольори - Ой, на горі білий камінь (нар.) (2:41)
    13. Візерунки шляхів - Весна і ти (муз. і сл. Т.Петриненко) (5:05)
    14. Ніна Злобіна, Надія пащенко і ансамбль Мрія - Зелен клен (І.Поклад - Ю.Рибчинський) (4:15)
    15. Смерічка - Гай, зелений гай (О.Злотник - Ю.Рибчинський) (3:06)
    16. Ватра - Зозуленька біла (нар.) (2:07)
    17. тріо Либідь - Чарівна скрипка (І.Поклад - Ю.Рибчинський) (4:42)
    Тривалість: 54:49
    Вміст log файлу:

    Exact Audio Copy V0.99 prebeta 3 from 28. July 2007

    Отчёт EAC об извлечении, выполненном 13. марта 2008, 2:08

    VA / Українські Вокально-Інструментальні Ансамблі

    Дисковод: Optiarc DVD RW AD-7173A Adapter: 1 ID: 0

    Режим чтения : Достоверность
    Использование точного потока : Да
    Отключение кэша аудио : да
    Использование указателей C2 : Нет

    Коррекция смещения при чтении : 0
    Способность читать области Lead-in и Lead-out : Нет
    Заполнение пропущенных сэмплов тишиной : Да
    Удаление блоков с тишиной в начале и конце : Нет
    При вычислениях CRC использовались нулевые сэмплы : Да
    Интерфейс : Установленный внешний ASPI-интерфейс

    Выходной формат : Внутренние WAV-операции
    Формат сэмплов : 44.100 Гц; 16 бит; стерео

    TOC извлечённого CD

    Трек | Старт | Длительность | Начальный сектор | Конечный сектор
    ---------------------------------------------------------------------
    1 | 0:00.00 | 3:27.65 | 0 | 15589
    2 | 3:27.65 | 2:46.71 | 15590 | 28110
    3 | 6:14.61 | 2:53.35 | 28111 | 41120
    4 | 9:08.21 | 3:08.73 | 41121 | 55293
    5 | 12:17.19 | 3:38.66 | 55294 | 71709
    6 | 15:56.10 | 2:55.24 | 71710 | 84858
    7 | 18:51.34 | 3:12.47 | 84859 | 99305
    8 | 22:04.06 | 3:06.01 | 99306 | 113256
    9 | 25:10.07 | 3:02.62 | 113257 | 126968
    10 | 28:12.69 | 2:43.61 | 126969 | 139254
    11 | 30:56.55 | 1:57.65 | 139255 | 148094
    12 | 32:54.45 | 2:41.18 | 148095 | 160187
    13 | 35:35.63 | 5:04.62 | 160188 | 183049
    14 | 40:40.50 | 4:14.70 | 183050 | 202169
    15 | 44:55.45 | 3:05.55 | 202170 | 216099
    16 | 48:01.25 | 2:06.48 | 216100 | 225597
    17 | 50:07.73 | 4:41.40 | 225598 | 246712

    Характеристики диапазона извлечения и сообщения об ошибках

    Выбранный диапазон

    Имя файла H:\muz\lossless\Шедеври української музики.lossless\Українські Вокально-Інструментальні Ансамблі\VA - Українські Вокально-Інструментальні Ансамблі.wav

    Пиковый уровень 96.6 %
    Качество диапазона 99.4 %
    CRC копии 48502164
    Копирование... OK

    Ошибок не произошло

    Конец отчёта
    Українська Сучаcна Лірична Пісня


    Пісні:
    01. Очеретяний Кіт - Залиши це (3:41)
    02. Вася Клаб - Хей, Джо (3:45)
    03. Джонатан Свіфт - Стежка (2:34)
    04. Неон - Забувай мене (4:01)
    05. Євген Могилевський - Молоко (4:23)
    06. Мандариновий Рай - Там, де ти (3:09)
    07. Самі Свої - Марічка (2:11)
    08. Еутерпа - Чи тобі не жаль (3:33)
    09. Ті, Що Падають Вгору - Та, що танцює з вітром (3:57)
    10. Фарбований Лис - Хочу бути (2:44)
    11. Джай Бату - Атлантида (4:11)
    12. Холодне Сонце - Зникле у сні (клубна обробка Kubicka) (3:59)
    13. Файно - Вечір (4:29)
    14. Воплі Відоплясова - Сонячні дні (3:55)
    Тривалість: 50:32
    Вміст log файлу:

    Exact Audio Copy V0.99 prebeta 3 from 28. July 2007

    Отчёт EAC об извлечении, выполненном 13. марта 2008, 1:45

    VA / Українська сучасна лірична пісня

    Дисковод: Optiarc DVD RW AD-7173A Adapter: 1 ID: 0

    Режим чтения : Достоверность
    Использование точного потока : Да
    Отключение кэша аудио : Да
    Использование указателей C2 : Нет

    Коррекция смещения при чтении : 0
    Способность читать области Lead-in и Lead-out : Нет
    Заполнение пропущенных сэмплов тишиной : Да
    Удаление блоков с тишиной в начале и конце : Нет
    При вычислениях CRC использовались нулевые сэмплы : Да
    Интерфейс : Установленный внешний ASPI-интерфейс

    Выходной формат : Внутренние WAV-операции
    Формат сэмплов : 44.100 Гц; 16 бит; стерео

    TOC извлечённого CD

    Трек | Старт | Длительность | Начальный сектор | Конечный сектор
    ---------------------------------------------------------------------
    1 | 0:00.00 | 3:41.01 | 0 | 16575
    2 | 3:41.01 | 3:45.20 | 16576 | 33470
    3 | 7:26.21 | 2:34.24 | 33471 | 45044
    4 | 10:00.45 | 4:01.08 | 45045 | 63127
    5 | 14:01.53 | 4:23.03 | 63128 | 82855
    6 | 18:24.56 | 3:09.16 | 82856 | 97046
    7 | 21:33.72 | 2:10.41 | 97047 | 106837
    8 | 23:44.38 | 3:32.44 | 106838 | 122781
    9 | 27:17.07 | 3:56.55 | 122782 | 140536
    10 | 31:13.62 | 2:44.32 | 140537 | 152868
    11 | 33:58.19 | 4:11.06 | 152869 | 171699
    12 | 38:09.25 | 3:59.21 | 171700 | 189645
    13 | 42:08.46 | 4:29.29 | 189646 | 209849
    14 | 46:38.00 | 3:54.49 | 209850 | 227448

    Характеристики диапазона извлечения и сообщения об ошибках

    Выбранный диапазон

    Имя файла H:\muz\lossless\Шедеври української музики.lossless\Українська сучасна лірична пісня\VA - Українська сучасна лірична пісня.wav

    Пиковый уровень 96.6 %
    Качество диапазона 100.0 %
    CRC копии 232F1B93
    Копирование... OK

    Ошибок не произошло

    Конец отчёта

Тривалість: 04:26:35
Мова: українська
Аудіо-кодек: APE
Бітрейт: 695-886 кб/с

Слухаємо хорошу музику в хорошій якості!
В MP3 дану збірку качаємо ТУТ

Якщо Ви справді бажаєте підтримати українське - після прослуховування, якщо музика вам сподобалась, придбайте ліцензійні диски.
Підтримаймо вітчизняних виконавців!


Срібний реліз (на рейтинг впливає 50% завантаженого)
 Трекер:    Зареєстрований   

Завантажити / скачати українську музику



відео для новачків



 Зареєстрований:   2009-08-16 20:14
 Розмір:   1.47 GB 
 Оцінка музики:   9.8/10 (Голосів: 39)
   
jinotot 
Почесний оцифрувальник літератури


З нами з: 28.01.09
Востаннє: 04.12.16
Повідомлень: 3235

2009-08-17 00:26  
allod, пропоную назву оформити таким чином:
Цитата:
VA - Шедеври Української Музики [5 CD] (2006) [APE] | Ethno/Folk/Pop

До кожного альбому прохання окремо вказати тривалість під списками пісень у спойлерах.
allod написано:
Сайти:
Цю графу треба прибрати, раз сайту немає.
Цитата:
Стиль: Ethno Folk Pop
Між стилями треба поставити коми.

Ну, і можна додати в кінці коронну фразу:
Цитата:
Якщо Ви справді бажаєте підтримати українське - після прослуховування, якщо музика вам сподобалась, придбайте ліцензійні диски. Підтримаймо вітчизняних виконавців!


Додано через 2 хвилини 53 секунди:

Питання до інших модераторів музики: Чи можна вважати даний реліз дискографією у лузлес якості? Це я до того питаю, щоб знати, яку "медальку" видати Happy

6c6c6 
Поважний учасник


З нами з: 30.09.07
Востаннє: 30.09.09
Повідомлень: 3674

2009-08-17 00:35  
jinotot, до дискографії не дотягує Tongue out (1)
jinotot 
Почесний оцифрувальник літератури


З нами з: 28.01.09
Востаннє: 04.12.16
Повідомлень: 3235

2009-08-17 01:16  
6c6c6 написано:
jinotot, до дискографії не дотягує
Тоді "срібло" Happy 6c6c6, дякую за підказку! Wink (1)
allod 
Новенький


З нами з: 05.02.09
Востаннє: 09.12.16
Повідомлень: 5

2009-08-17 10:28  
jinotot, виправив.
П.С. що означає "VA" в назві роздачі? Happy

6c6c6 
Поважний учасник


З нами з: 30.09.07
Востаннє: 30.09.09
Повідомлень: 3674

2009-08-17 10:41  
allod, те що виконавців чимало.
ssTAss 
Модератор музики


З нами з: 05.07.08
Востаннє: 10.12.16
Повідомлень: 10950

2009-08-17 11:19  
6c6c6 написано:
до дискографії не дотягує Tongue out (1)

ну не знаю... як на мене, то це якраз і є дискографія
як два альбоми одного виконавця, так вже дискографія, а як 5 альбомів - то ні... так, тут не один виконавець, але ж один і той самий проект "Шедеври української музики"

jinotot 
Почесний оцифрувальник літератури


З нами з: 28.01.09
Востаннє: 04.12.16
Повідомлень: 3235

2009-08-17 12:39  
allod, ще можна під кожним сполером із переліком пісень створити додаткові спойлери, в яких викласти вміст лог-файлів. Наперед вдячний.
Пи.Си. Трохі підправив оформлення. То нічого?

allod 
Новенький


З нами з: 05.02.09
Востаннє: 09.12.16
Повідомлень: 5

2009-08-17 13:22  
jinotot, є вміст лог-файлів.
jinotot 
Почесний оцифрувальник літератури


З нами з: 28.01.09
Востаннє: 04.12.16
Повідомлень: 3235

2009-08-17 14:12  
allod, дякую за роботу і за реліз!
Konfucius 
Управління
Управління


З нами з: 30.09.07
Востаннє: 10.12.16
Повідомлень: 4746

2009-08-17 19:33  
Окреме дякую за lossless.
plyrvt 
VIP


З нами з: 03.12.08
Востаннє: 09.12.16
Повідомлень: 398

2009-10-25 16:55  
Джерело: myrowka
Wolt 
Новенький


З нами з: 23.03.10
Востаннє: 24.07.16
Повідомлень: 5

2010-03-26 11:28  
allod, а де ж роздача? 31 чол. закачали а ніхто не роздає Ваші Шедеври Української Музики! Будьте добрі, активізуйте роздачу!
Наперед вдячний!

plyrvt 
VIP


З нами з: 03.12.08
Востаннє: 09.12.16
Повідомлень: 398

2010-03-26 12:00  
Wolt ну от ви будете 32-им хто скачає і втіче... Це нормально, на всіх трекерах співвідношення сідерів до тих що скачали не більше як 1 до 30-50.
А на цьому трекері для ріпів образом (image+CUE) і того менше, бо модератори (кожен зокрема і персонально) привчили користувачів (постійних, бо зальотні користувачі сідувати не будуть апріорі, скачав і забув реєстраційний логін) що потрібно псувати lossless, викидаючи log+cue і розрізаючи образ

jinotot 
Почесний оцифрувальник літератури


З нами з: 28.01.09
Востаннє: 04.12.16
Повідомлень: 3235

2010-03-26 21:38  
До plyrvt (оффтоп, звісно) Happy
plyrvt, от шо тобі ніяк не йметься, га? І до чого тут саме модератори? Це справа кожного зокрема — який саме формат для зберігання і прослуховування музики обирати. Якщо хочеш аби я обрав для себе виключно той самий варіант, що і ти (image+cue), — прошу дуже, будь ласкавий, подаруй мені портативний плеєр, який нормально розпізнаватиме, програватиме і матиме нормальну навігацію по треках. Ну, або так і бути — принаймні назви модель такого чудового плеєра, який дасть раду таким розпрекрасним образам Wink (2)
Крім того, якби ти був трохи уважніший, то звернув би увагу, що ті твої роздачі, які я стягнув, я роздаю і досі, тримаючи їх образами так, як вони і були. Хоча те, що зміг, порізав для себе — у потрековий FLAC, деяким друзям — в МР3, і то все також тримаю на компі. А вільного місця на диску вже реально менше ґіґа. Але совість мені не дозволяє викинути вже по суті не потрібні мені образи і звільнити таким чином чимало місця. Натомість від тебе я постійно читаю закиди на адресу модераторів (отже і на мою власну адресу): модератори те, модератори се... Ну, раз ми такі погані, то чого ж ти тоді з нами водишся і нас, таких поганих, терпиш? Я, наприклад, дуже поважаю особисто тебе за твій безсумнівно вагомий і цінний вклад у розвиток розділу "Українська музика в lossless" на Толоці, а також за те, що ти дуже добре знаєшся на питаннях та нюансах lossless’у і ділишся тими знаннями з іншими. Але, вибач, воно переходить часом у свого роду снобізм, мовляв, ви тут всі дурні і не шарите, і тільки мені відома єдино можлива істина. Але це справді питання смаку і зручності, тож єдиної істини тут бути не може.
Прошу більше, будь ласка, не порушувати подібних тем про те, що в усіх бідах світових винні, виявляється, модератори. Твої зауваження щодо відсутності лоґів у роздачах я врахую і свої релізи, коли звільниться час і місце, обов’язково перероблю. Можу навіть у трьох варіантах переробити і зарелізити образи, потрековий флак та МР3 — аби всім прихильникам різнокольорових фломастерів догодити. Тільки не нудіть, будь ласка і майте хоч трохи совісті та поваги до інших!
Відповідати, якщо є бажання, прошу ВИКЛЮЧНО В ПРИВАТ, а не як завжди Happy

Wolt 
Новенький


З нами з: 23.03.10
Востаннє: 24.07.16
Повідомлень: 5

2010-03-26 22:35  
plyrvt, дякую вам за інформацію, буду 32 сідером, поки не розберусь з lossless-ом... Happy
plyrvt 
VIP


З нами з: 03.12.08
Востаннє: 09.12.16
Повідомлень: 398

2010-03-26 23:56  
офф
Цитата:
І до чого тут саме модератори?

всі тутешні модератори персонально і конкретно (на чолі з Адміном) - паплюжать lossless, беруть і нищать.

Цитата:
Це справа кожного зокрема — який саме формат для зберігання і прослуховування музики обирати.

Двома руками за! Я не проти жодного формату (типу ріпа, контейнера, кодера - вони всі хороші, один одного кращий)! (якщо це музичні формати, а не наприклад WAV який не пристосований для музики)

Цитата:
Якщо хочеш аби я обрав для себе виключно той самий варіант, що і ти (image+cue)

Я не обирав image+cue, потрековий ріп нічим не гірший (в того і в того є свої невеличкі плюси, але обидва ідеальні в користуванні).
Чужі ріпи паплюжити взагалі технологічно повинно бути заборонено (всюди де lossless обмінники/трекери є таке правило) - якщо лог ріпу не відповідає реальному вмісту - то реліз або видаляється або має якийсь тимчасовий статус до появи нормального ріпу.
А власні ріпи я надаю перевагу поки image. Єдиний плюс потрекових - можливість скачувати окремі треки, я не рахую актуальним. Кому треба для ознайомлення треки - хай йдуть в розділи lossy. Кому треба lossless хай качає цілий диск в тому виді як його видав видавець.
Зате можливість легко і безкровно правити CUE (як по розбивці на треки, тривалість, так і особливо по точному заповненню тегів) - це мегаплюс. Не чіпаючи і не перероздаючи 300 Мб релізу можна виправити огріхи CUE (1 кілобайт). Можна навіть виправити огріхи в чужому релізі не перестаючи його сідувати (просто створивши собі копію CUE з правильним вмістом)

Цитата:
прошу дуже, будь ласкавий, подаруй мені портативний плеєр, який нормально розпізнаватиме, програватиме і матиме нормальну навігацію по треках.

Проблема висмоктана з пальця. Портативний плеєр не має ніякого відношення до формату на ПК. Закидати на плеєр (в будь-який формат, flac/mp3/ogg) з ПК ні по затратах астрономічного часу, ні по кількості кліків мишкою чи клавіатурою не менше і не більше незалежно від формату.
Чи Ви хочете сказати що у вас такий продвинутий плеєр, що може напряму качати torrent, і ви не використовуєте Windows/Linux для попереднього скачування релізу на ПК?
Закинути з ПК на твій плеєр потрековий FLAC займе однаково часу і можливо навіть менше кліків мишкою (в мене - 2 кліки, хоча можна замінити на 1 шорткат! 1 натиснення клавіші і через N секунд файли в будь-якому форматі вже на плеєрі. Незалежно від вхідного формату. N обмежується швидкість USB порта плеєра.) Незалежно від вхідного формату - хоч APE-image+CUE, хоч потрековий WavPack.

Цитата:
принаймні назви модель такого чудового плеєра, який дасть раду таким розпрекрасним образам

Будь-який плеєр. Починати потрібно не з плеєра а з прошарку між клавіатурою і сидінням. Для початку видалити Winamp та його клони. Цього повинно вистачити.

Цитата:
Хоча те, що зміг, порізав для себе — у потрековий FLAC

Мишата плакали, кололися, але не переставали їсти кактус...

Цитата:
Але, вибач, воно переходить часом у свого роду снобізм, мовляв, ви тут всі дурні і не шарите, і тільки мені відома єдино можлива істина.

Так. Хай це буде снобізмом. Я довбав і буду довбати - раз на трекері є розділ lossless, то і правила і поведінка модераторів мають відповідати взятим зобов'язанням. Наразі для підриву ідеології lossless зсередини сформувалася бригада модераторів (а.к.а. п'ята колона), яка в свої задачі поставила пряме фізичне знищення lossless ріпів. Беруться з інших джерел lossless ріпи (благо звідти ще можна скачати непошкоджені релізи) і паплюжаться.
Не скажу що дурні і не шарять, хитрі і добре шарять. Але в мене жевріє надія, що адмін в кінці-кінців зверне на це увагу, і в lossless розділі дозволить викладати лише lossless релізи.

Цитата:
Прошу більше, будь ласка, не порушувати подібних тем про те, що в усіх бідах світових винні, виявляється, модератори.

Зобов'язуюся і надалі порушувати питання нищіння lossless модераторами цього трекера в повному персональному складі. Навіть якщо мене тут забанять.

Цитата:
Можу навіть у трьох варіантах переробити і зарелізити образи, потрековий флак та МР3 — аби всім прихильникам різнокольорових фломастерів догодити.

Навіщо в трьох, я знаю лише два. Lossless (як потрековий так і образом, потрековий практично нічим не гірший, обидва дозволяють відтворити побітну копію CD-DA диску. Але в реальному користуванні image трішки зручніший, незалежний від власне даних CUE файл дозволяє легше виправляти як свої так і чужі помилки в ріпах). І Lossy. Модератори цього трекера створили "нове слово" - lossy релізи в FLAC контейнері. Щось проміжне між lossy і lossless. Невідомо що всередині і звідки, відтворити початковий CD-DA неможливо, зате довольні ті, кому 320 кбіт в mp3 мало. Ну то робіть OGG 450 кбіт. Але не чіпайте lossless.

Цитата:
Відповідати, якщо є бажання, прошу ВИКЛЮЧНО В ПРИВАТ, а не як завжди

І про що там в приваті говорити? Вплинути на когорту модерів можливо лише зовні - відвідувачами або адміном

Tarasyk 
Відео Гуртом - фільмокрай
Відео Гуртом - фільмокрай


З нами з: 26.08.09
Востаннє: 09.12.16
Повідомлень: 5972

2010-03-27 15:50  
jinotot, plyrvt, вибачте, що втручаюся, але оскільки ця тема торкається і мене, то хотілося б дізнатися і уточнити деякі моменти.

plyrvt написано:
всі тутешні модератори персонально і конкретно (на чолі з Адміном) - паплюжать lossless, беруть і нищать.

plyrvt, по-перше, чим саме ми нищимо lossless?

І друге запитання, які у тебе КОНКРЕТНІ пропозиції, як цього уникнути і що слід додати в правила, щоб ми разом з Адміном не нищили lossless?

jinotot, будь ласка, розділи тему і перенеси цю частину дискусії до Технічних питань, бо я цього ніколи не робив і боюся, щоб раптом якісь пости не зникли.

jinotot 
Почесний оцифрувальник літератури


З нами з: 28.01.09
Востаннє: 04.12.16
Повідомлень: 3235

2010-03-27 21:41  
Не буду я нічого відокремлювати й переносити. Я це вже не раз робив. Таких тем існує до фіґа, в них plyrvt весь час переливає з пустого в порожнє і твердить одне й те саме, тільки різними словами — добре, що хоч не копі-пастить. Мені це набридло, чесно. Скажу більше — мені прикро й образливо таке читати. Тим більше, що узагальнене поняття "модери", без конкретних імен та конкретних вказівок на релізи та їх недоліки — це взагалі навіть не знаю як назвати... По моєму так — щось не подобається, то візьми і конкретній людині напиши свої зауваження, а тикати пальцями в усіх одразу і в той же час ні в кого конкретного — це дитячий садочок якийсь...
plyrvt, хочеш реформ і зрушень? Тоді пиши адмінові в приват. Тільки я тобі одразу скажу, що якщо і буде якийсь результат, то ой як нескоро... А на разі ти лише клонуєш однотипні дописи в усіх можливих і неможливих для того темах. Якщо ти думаєш, що адмін їх читає чи принаймні бачив, то ти глибоко помиляєшся. Тож не варто тут із себе вдавати революціонера й реформатора. Хочеш змін? Пиши адмінові і вимагай. Маєш претензії? Пиши конкретно і безпосередньо тому, кому вони адресовані. А оця балаканина без конкретики вже набридла. І не тільки мені.
Наступного разу подібні дописи видалятиму, а теми закриватиму. Можу ще й правила нагадати:
У праилах написано:
2. Правила та обмеження форуму
Всім, без винятку заборонено:
...
2.2 Надсилати однакові або подібні повідомлення (флуд)
...
2.4 Публічно виявляти неповагу діям модератора або адміністратора
Звісно, що за таке в нас ще ніколи не карали, як і за будь-яке інше порушення правил. Але шанси стати першим завжди є. Тож дуже прошу не лише звернути увагу на моє прохання (тим більше, що прошу не перший раз і не тільки я), але й виконати його.
Тему закриваю. Задаля уникнення можливих наслідків, так би мовити. Потім почищу.

aaazzz 
Відео Гуртом - підтримка та поширення
Відео Гуртом - підтримка та поширення


З нами з: 23.08.09
Востаннє: 09.12.16
Повідомлень: 80

2011-05-20 22:16  
Прекрасна дискографія, прекрасне все. Щиро дякую.
vadym-strike 
Новенький


З нами з: 14.11.13
Востаннє: 27.12.13
Повідомлень: 1

2013-11-14 10:06  
Дуже дякую, хороша підбірка
civ 
VIP


З нами з: 16.02.11
Востаннє: 09.12.16
Повідомлень: 429

2013-12-07 08:54  
Шановний авторе релізу. А може ви би доповнили свою роздачу моєю роздачею Українського бароко, і все було би зібрано в одному місці.
Ваш часовий пояс: GMT + 2 Години

Нова тема   Відповісти