Завантажити та скачати торренти українською


Саботаж / Sabotage (1996) 720p Ukr/Eng | Sub Eng

Нові коментарі

Нова тема   Відповісти
Автор Повідомлення
Anonymous 







2015-11-05 14:13  
Саботаж / Sabotage (1996) 720p Ukr/Eng | Sub Eng



Жанр: бойовик, трилер, драма
Країна: Канада



Кінокомпанія: Applecreek Communications Inc., Applecreek Productions
Режисер: Тібор Такач / Tibor Takács
Актори: Марк Дакаскос / Mark Dacascos, Кері-Енн Мосс / Carrie-Anne Moss, Тоні Тодд / Tony Todd, Грехем Грін / Graham Greene, Джон Невілл / John Neville, Джеймс Парселл / James Purcell та інші

Сюжет:
Морпіх Майк Бішоп (Марк Дакаскос) бере участь у провальній операції зі звільнення заручників. Отримавши 7 поранень від руки професійного вбивці, Бішоп дивом залишається живий.

Через декілька років сім'я, в якій Бішоп працює охоронцем, стає жертвою того ж вбивці. Об'єднавшись із спецагентом ФБР (Кері-Енн Мосс), Бішоп вступає в смертельну сутичку з суперкіллером, і "перемир'я" у цій війні бути не може.


Рейтинг MPAA: R - особам до 17 років обов'язкова присутність батьків або дорослого опікуна
Вікова категорія: 16+

Тривалість: 01:39:28
Якість: 720p
Відео:
кодек:
розмір кадру: 1280 х 720
бітрейт: 9500 кбіт/с

Аудіо # 1:
мова: українська
переклад: двоголосий закадровий
ролі озвучили: Олег Лепенець і Наталя Задніпровська
кодек: 2.0
бітрейт: 192 кбіт/с

Аудіо # 2:
мова: англійська
переклад: оригінал
кодек: 5.1
бітрейт: 448 кбіт/с

Субтитри:
мова: англійська
тип: програмні (м'які)
формат: *.srt

Збережено оригінальні розділи, як на Blu-ray.
MediaInfo
Код:
General
Unique ID                   : 231245727064208077235049258476473931086 (0xADF84E994929E32BA81ED84BF753D54E)
Complete name               : Sabotage (1996) [Ukr,Eng sub.Eng] 720p [Hurtom & HDClub].mkv
Format                      : Matroska
Format version              : Version 4 / Version 2
File size                   : 7.07 GiB
Duration                    : 1h 39mn
Overall bit rate            : 10.2 Mbps
Movie name                  : Саботаж / Sabotage (1996) [Ukr,Eng sub.Eng] 720p [Hurtom & HDClub] by igor911
Encoded date                : UTC 2015-11-05 10:40:57
Writing application         : mkvmerge v8.5.2 ('Crosses') 64bit
Writing library             : libebml v1.3.3 + libmatroska v1.4.4
Attachements                : cover.jpg
DURATION                    : 01:35:07.664000000
NUMBER_OF_FRAMES            : 660
NUMBER_OF_BYTES             : 27258
_STATISTICS_WRITING_APP     : mkvmerge v8.5.2 ('Crosses') 64bit
_STATISTICS_WRITING_DATE_UT : 2015-11-05 10:40:57
_STATISTICS_TAGS            : BPS DURATION NUMBER_OF_FRAMES NUMBER_OF_BYTES

Video
ID                          : 1
Format                      : AVC
Format/Info                 : Advanced Video Codec
Format profile              : [email protected]
Format settings, CABAC      : Yes
Format settings, ReFrames   : 9 frames
Codec ID                    : V_MPEG4/ISO/AVC
Duration                    : 1h 39mn
Bit rate                    : 9 500 Kbps
Width                       : 1 280 pixels
Height                      : 720 pixels
Display aspect ratio        : 16:9
Frame rate mode             : Constant
Frame rate                  : 23.976 fps
Color space                 : YUV
Chroma subsampling          : 4:2:0
Bit depth                   : 8 bits
Scan type                   : Progressive
Bits/(Pixel*Frame)          : 0.430
Stream size                 : 6.48 GiB (92%)
Title                       : Саботаж / Sabotage (1996) 720p [SbR]
Writing library             : core 146 r0+2586 e393126 t_mod_Custom [[email protected] X86_64]
Encoding settings           : cabac=1 / ref=9 / deblock=1:-3:-3 / analyse=0x3:0x133 / me=umh / subme=11 / psy=1 / fade_compensate=0.00 / psy_rd=1.00:0.05 / mixed_ref=1 / me_range=24 / chroma_me=1 / trellis=2 / 8x8dct=1 / cqm=0 / deadzone=21,11 / fast_pskip=0 / chroma_qp_offset=-3 / threads=6 / lookahead_threads=1 / sliced_threads=0 / nr=0 / decimate=1 / interlaced=0 / bluray_compat=0 / constrained_intra=0 / fgo=0 / bframes=11 / b_pyramid=2 / b_adapt=2 / b_bias=0 / direct=3 / weightb=1 / open_gop=0 / weightp=2 / keyint=250 / keyint_min=23 / scenecut=40 / intra_refresh=0 / rc=2pass / mbtree=0 / bitrate=9500 / ratetol=1.0 / qcomp=0.70 / qpmin=0:0:0 / qpmax=69:69:69 / qpstep=4 / cplxblur=20.0 / qblur=0.5 / ip_ratio=1.30 / pb_ratio=1.20 / aq=1:0.80 / aq-sensitivity=10.00 / aq-factor=1.00:1.00:1.00 / aq2=1:0.70 / aq2-sensitivity=15.00 / aq2-factor=1.00:1.00:1.00 / aq3=1:[0.65:0.65]:[0.65:0.65]:[0.65:0.65]:[0.65:0.65] / aq3-sensitivity=10.00 / aq3-factor=[1.00:1.00]:[1.00:1.00]:[1.00:1.00] / aq3-boundary=192:64:24
Language                    : English
Default                     : Yes
Forced                      : No
Color range                 : Limited
Matrix coefficients         : BT.709

Audio #1
ID                          : 2
Format                      : AC-3
Format/Info                 : Audio Coding 3
Mode extension              : CM (complete main)
Format settings, Endianness : Big
Codec ID                    : A_AC3
Duration                    : 1h 39mn
Bit rate mode               : Constant
Bit rate                    : 192 Kbps
Channel(s)                  : 2 channels
Channel positions           : Front: L R
Sampling rate               : 48.0 KHz
Compression mode            : Lossy
Stream size                 : 137 MiB (2%)
Title                       : DVO [TVi] 2.0 192 kbps [Hurtom-bodia87]
Language                    : Ukrainian
Default                     : Yes
Forced                      : No

Audio #2
ID                          : 3
Format                      : AC-3
Format/Info                 : Audio Coding 3
Mode extension              : CM (complete main)
Format settings, Endianness : Big
Codec ID                    : A_AC3
Duration                    : 1h 39mn
Bit rate mode               : Constant
Bit rate                    : 448 Kbps
Channel(s)                  : 6 channels
Channel positions           : Front: L C R, Side: L R, LFE
Sampling rate               : 48.0 KHz
Compression mode            : Lossy
Stream size                 : 319 MiB (4%)
Title                       : Original [R5 Twister] 5.1 448 kbps
Language                    : English
Default                     : No
Forced                      : No

Text
ID                          : 4
Format                      : UTF-8
Codec ID                    : S_TEXT/UTF8
Codec ID/Info               : UTF-8 Plain Text
Language                    : English
Default                     : No
Forced                      : No

Menu
00:00:00.000                : en:00:00:00.000
00:08:20.208                : en:00:08:20.208
00:21:19.445                : en:00:21:19.445
00:36:09.793                : en:00:36:09.793
00:51:31.171                : en:00:51:31.171
01:07:56.990                : en:01:07:56.990
01:21:55.536                : en:01:21:55.536
01:32:16.990                : en:01:32:16.990
Оригінал <----------> Ріп









Джерела та подяки: &
ріп відео, оригінальні звук та субтитри - delia (SbR (HDBits/HDClub); українська доріжка - bodia87; фільмографія та інформація про озвучення - Віктор (всі - Гуртом).






ЗАЛИШАЙТЕСЬ ЯКОМОГА ДОВШЕ НА РОЗДАЧІ!

СКАЧАВ САМ - ДАЙ СКАЧАТИ ІНШИМ


Срібний реліз (на рейтинг впливає 50% завантаженого)
 Трекер:    Зареєстрований   

Завантажити / скачати фільм українською



відео для новачків



 Зареєстрований:   2015-11-05 14:13
 Розмір:   7.07 GB 
 Оцінка фільму:   4.4/10 (Голосів: 17)
   
Інші релізи
   Саботаж / Sabotage (1996) bodia87  2 / 0   1.24 GB   2010-07-11 14:08 
Gelios 
Відео Гуртом - дизайнер
Відео Гуртом - дизайнер


З нами з: 03.09.11
Востаннє: 03.12.16
Повідомлень: 1880

2016-04-28 18:42  
По НЛО ТБ було інше (багатоголосе) озвучення. Ймовірно, студія каналу Україна.
Anonymous 







2016-04-28 20:20  
Gelios, не знаєш, хтось писав?

Додано через 1 хвилину 22 секунди:

бо на ексі не знайшов. До речі, не знаєш, чому закинули тутешню вікі?

Ваш часовий пояс: GMT + 2 Години

Нова тема   Відповісти