Завантажити та скачати торренти українською


Грудневі хлопці / December Boys (2007) 720p Ukr/Eng | Sub Ukr/Eng

Нові коментарі

Нова тема   Відповісти
Автор Повідомлення
Anonymous 







2015-11-04 10:42  
Грудневі хлопці / December Boys (2007) 720p Ukr/Eng | Sub Ukr/Eng



Альтернативні постери




повнорозмірні зображення відкриються по кліку (з натиснутим CTRL чи кліком середньою кнопкою мишки - у новій вкладці)


Жанр: драма, мелодрама
Країна: Австралія



Кінокомпанія: Australian Film Finance Corporation (AFFC), Becker Group, Best FX (Boom Sound), MB 2 Film & Media GmbH, South Australian Film Corporation, Village Roadshow Pictures
Режисер: Род Гарді / Rod Hardy
Актори: Деніел Редкліф / Daniel Radcliffe, Тереза Палмер Teresa Palmer, Крістіан Баєрс / Christian Byers, Лі Кормі / Lee Cormie, Джеймс Фрайзер / James Fraser, Вікторія Хілл / Victoria Hill, Салліван Степлтон / Sullivan Stapleton, Джек Томпсон / Jack Thompson, Кріс МакКвейд / Kris McQuade, Сьюзі Вілкс / Suzie Wilks, Енді МакФі / Andy McPhee та інші

Сюжет:
Грудневі хлопці - компанія чотирьох юних сиріт, народжених у грудні. З кожним роком їх надії на всиновлення тануть на очах. Але одного разу під час канікул у чотирьох друзів з'являється надія знайти прийомних батьків, але тільки для одного з них. Хлопчики подружилися з молодою парою, нездатною мати дітей і готовою всиновити одного з них. Конкуруючи між собою, сироти перевіряють свою дружбу і зустрічають перше кохання.


Рейтинг MPAA: PG-13 - дітям до 13 років перегляд не бажаний
Вікова категорія: 12+

Тривалість: 01:45:00
Якість: 720p
Відео:
кодек:
розмір кадру: 1280 х 534
бітрейт: 3971 кбіт/с

Аудіо # 1:
мова: українська
переклад: багатоголосий закадровий
ролі озвучили: Анатолій Пашнін, Дмитро Гаврилов і два жіночих голоси
кодек: 5.1
бітрейт: 384 кбіт/с

Аудіо # 2:
мова: англійська
переклад: оригінал
кодек: 5.1
бітрейт: 384 кбіт/с

Субтитри # 1:
мова: українська
тип: програмні (м'які)
формат: *.srt

Субтитри # 2-3:
мова: англійська (повні, SDH)
тип: програмні (м'які)
формат: *.srt

Збережено оригінальні розділи.
MediaInfo
Код:
General
Unique ID                   : 219667976630344383452875364572915513049 (0xA542836E486C6F6B8DE6C3B1D78736D9)
Complete name               : December Boys (2007) [Ukr,Eng sub.Ukr,Eng] 720p [Hurtom & HDClub].mkv
Format                      : Matroska
Format version              : Version 4 / Version 2
File size                   : 3.55 GiB
Duration                    : 1h 45mn
Overall bit rate            : 4 835 Kbps
Movie name                  : Грудневі хлопці / December Boys (2007) [Ukr,Eng sub.Ukr,Eng] 720p [Hurtom & HDClub] by igor911
Encoded date                : UTC 2015-11-03 19:09:24
Writing application         : mkvmerge v8.5.1 ('Where you lead I will follow') 64bit
Writing library             : libebml v1.3.3 + libmatroska v1.4.4
Attachements                : cover.jpg
DURATION                    : 01:38:08.890000000
NUMBER_OF_FRAMES            : 854
NUMBER_OF_BYTES             : 42581
_STATISTICS_WRITING_APP     : mkvmerge v8.5.1 ('Where you lead I will follow') 64bit
_STATISTICS_WRITING_DATE_UT : 2015-11-03 19:09:24
_STATISTICS_TAGS            : BPS DURATION NUMBER_OF_FRAMES NUMBER_OF_BYTES

Video
ID                          : 1
Format                      : AVC
Format/Info                 : Advanced Video Codec
Format profile              : [email protected]
Format settings, CABAC      : No
Format settings, ReFrames   : 2 frames
Format settings, GOP        : N=1
Codec ID                    : V_MPEG4/ISO/AVC
Duration                    : 1h 45mn
Bit rate                    : 3 971 Kbps
Width                       : 1 280 pixels
Height                      : 534 pixels
Display aspect ratio        : 2.40:1
Frame rate mode             : Constant
Frame rate                  : 23.976 fps
Color space                 : YUV
Chroma subsampling          : 4:2:0
Bit depth                   : 8 bits
Scan type                   : Progressive
Bits/(Pixel*Frame)          : 0.242
Stream size                 : 2.91 GiB (82%)
Title                       : Грудневі хлопці / Декабрьские мальчики / December Boys (2007) 720p [HDClub]
Language                    : English
Default                     : Yes
Forced                      : No
Color range                 : Limited
Color primaries             : BT.709
Transfer characteristics    : BT.709
Matrix coefficients         : BT.709

Audio #1
ID                          : 2
Format                      : AC-3
Format/Info                 : Audio Coding 3
Mode extension              : CM (complete main)
Format settings, Endianness : Big
Codec ID                    : A_AC3
Duration                    : 1h 45mn
Bit rate mode               : Constant
Bit rate                    : 384 Kbps
Channel(s)                  : 6 channels
Channel positions           : Front: L C R, Side: L R, LFE
Sampling rate               : 48.0 KHz
Compression mode            : Lossy
Stream size                 : 288 MiB (8%)
Title                       : MVO [K1] 5.1 384 kbps [TNU-MAKAPOHHIK]
Language                    : Ukrainian
Default                     : Yes
Forced                      : No

Audio #2
ID                          : 3
Format                      : AC-3
Format/Info                 : Audio Coding 3
Mode extension              : CM (complete main)
Format settings, Endianness : Big
Codec ID                    : A_AC3
Duration                    : 1h 45mn
Bit rate mode               : Constant
Bit rate                    : 384 Kbps
Channel(s)                  : 6 channels
Channel positions           : Front: L C R, Side: L R, LFE
Sampling rate               : 48.0 KHz
Compression mode            : Lossy
Stream size                 : 288 MiB (8%)
Title                       : Original 5.1 384 kbps
Language                    : English
Default                     : No
Forced                      : No

Text #1
ID                          : 4
Format                      : UTF-8
Codec ID                    : S_TEXT/UTF8
Codec ID/Info               : UTF-8 Plain Text
Title                       : Ukr full [Edited by igor911]
Language                    : Ukrainian
Default                     : No
Forced                      : No

Text #2
ID                          : 5
Format                      : UTF-8
Codec ID                    : S_TEXT/UTF8
Codec ID/Info               : UTF-8 Plain Text
Title                       : Eng full
Language                    : English
Default                     : No
Forced                      : No

Text #3
ID                          : 6
Format                      : UTF-8
Codec ID                    : S_TEXT/UTF8
Codec ID/Info               : UTF-8 Plain Text
Title                       : Eng SDH
Language                    : English
Default                     : No
Forced                      : No

Menu
00:00:00.000                : en:1
00:04:40.000                : en:2
00:08:27.000                : en:3
00:11:36.000                : en:4
00:15:26.000                : en:5
00:19:29.000                : en:6
00:23:25.000                : en:7
00:26:04.000                : en:8
00:30:20.000                : en:9
00:33:56.000                : en:10
00:38:10.000                : en:11
00:42:01.000                : en:12
00:46:08.000                : en:13
00:50:41.000                : en:14
00:53:52.000                : en:15
00:56:53.000                : en:16
01:01:12.000                : en:17
01:06:30.000                : en:18
01:12:01.000                : en:19
01:15:56.000                : en:20
01:20:55.000                : en:21
01:26:56.000                : en:22
01:29:46.000                : en:23
01:32:35.000                : en:24
01:34:46.000                : en:25
01:39:35.000                : en:26




Джерела та подяки: & &
відео, оригінальні звук та субтитри - marchelush (HDClub); українська доріжка - MAKAPOHHIK; українські субтитри - DVD R5, igor911 - редагування; фільмографії акторів та інформація про озвучення - Xshot, Neo777 (всі - Гуртом).






ЗАЛИШАЙТЕСЬ ЯКОМОГА ДОВШЕ НА РОЗДАЧІ!

СКАЧАВ САМ - ДАЙ СКАЧАТИ ІНШИМ


 Трекер:    Зареєстрований   

Завантажити / скачати фільм українською



відео для новачків



 Зареєстрований:   2015-11-04 10:42
 Розмір:   3.55 GB 
 Оцінка фільму:   2.5/10 (Голосів: 12)
   
Інші релізи
   Грудневі хлопчики / December Boys (2007) MAKAPOHHIK  1 / 0   1.37 GB   2010-02-18 12:33 
Ваш часовий пояс: GMT + 2 Години

Нова тема   Відповісти