Завантажити та скачати торренти українською


Рік та Морті (сезон 2) / Rick and Morty (season 2) Eng | sub Ukr

Нові коментарі

Нова тема   Відповісти
Останній раз роздавалося mad_boy (2017-01-18)
Автор Повідомлення
Час_настал 
VIP


З нами з: 01.07.10
Востаннє: 18.01.17
Повідомлень: 287

2015-11-03 19:53  
Рік та Морті (сезон 2) / Rick and Morty (season 2) Eng | sub Ukr

Рік та Морті (сезон 2) / Rick and Morty (season 2) Eng | sub Ukr


Жанр: чорна комедія, фантастика, фентезі
Країна: США



Кінокомпанія: Williams Street
Режисер: Джастін Ройленд, Ден Хармон
Актори: Джастін Ройленд, Кріс Парнелл, Спенсер Ґраммер та інші

Сюжет:
Продовження походеньок підстаркуватого алкогенія Ріка та його наївного онука Морті.
Я роблю субтитри, а озвучення чекайте трохи згодом як і раніше від Fanvoxua.

Вже озвучена версія Ріка та Морті (1й сезон)

Вже озвучена версія Ріка та Морті (2й сезон)


Тривалість: 00:22:52
Якість:
Відео:
кодек:
розмір кадру: 1280 х 738
бітрейт: 2000 кб/с

Аудіо:
мова: англійська
переклад: оригінал
кодек: 2.0
бітрейт: 128 кб/с

Субтитри:
мова: українська
тип: програмні (м'які)
формат: *.srt
Скріншоти


Медіа Інфо
Рік та Морті - 2х01 - Рікануті в часі.mp4
Format : MPEG-4
Format profile : Base Media / Version 2
Codec ID : mp42
File size : 344 MiB
Duration : 22mn 52s
Overall bit rate mode : Variable
Overall bit rate : 2 104 Kbps
Encoded date : UTC 2015-11-01 18:00:50
Tagged date : UTC 2015-11-01 18:09:48
Writing application : HandBrake 0.9.9 2013052900

Video
ID : 1
Format : AVC
Format/Info : Advanced Video Codec
Format profile : [email protected]
Format settings, CABAC : Yes
Format settings, ReFrames : 4 frames
Codec ID : avc1
Codec ID/Info : Advanced Video Coding
Duration : 22mn 52s
Source duration : 22mn 52s
Bit rate : 2 000 Kbps
Width : 1 280 pixels
Height : 720 pixels
Display aspect ratio : 16:9
Frame rate mode : Variable
Frame rate : 23.976 fps
Minimum frame rate : 23.810 fps
Maximum frame rate : 24.390 fps
Color space : YUV
Chroma subsampling : 4:2:0
Bit depth : 8 bits
Scan type : Progressive
Bits/(Pixel*Frame) : 0.091
Stream size : 322 MiB (94%)
Source stream size : 322 MiB (94%)
Writing library : core 130 r2273 b3065e6
Encoding settings : cabac=1 / ref=1 / deblock=1:0:0 / analyse=0x1:0x111 / me=hex / subme=2 / psy=1 / psy_rd=1.00:0.00 / mixed_ref=0 / me_range=16 / chroma_me=1 / trellis=0 / 8x8dct=0 / cqm=0 / deadzone=21,11 / fast_pskip=1 / chroma_qp_offset=0 / threads=6 / lookahead_threads=2 / sliced_threads=0 / nr=0 / decimate=1 / interlaced=0 / bluray_compat=0 / constrained_intra=0 / bframes=3 / b_pyramid=2 / b_adapt=1 / b_bias=0 / direct=1 / weightb=1 / open_gop=0 / weightp=1 / keyint=240 / keyint_min=24 / scenecut=40 / intra_refresh=0 / rc_lookahead=10 / rc=abr / mbtree=1 / bitrate=2000 / ratetol=1.0 / qcomp=0.60 / qpmin=0 / qpmax=69 / qpstep=4 / vbv_maxrate=20000 / vbv_bufsize=25000 / nal_hrd=none / ip_ratio=1.40 / aq=1:1.00
Encoded date : UTC 2015-11-01 18:00:50
Tagged date : UTC 2015-11-01 18:09:46
Color range : Limited
Color primaries : BT.709
Transfer characteristics : BT.709
Matrix coefficients : BT.709

Audio
ID : 2
Format :
Format/Info : Advanced Audio Codec
Format profile : LC
Codec ID : 40
Duration : 22mn 52s
Source duration : 22mn 52s
Bit rate mode : Variable
Bit rate : 128 Kbps
Maximum bit rate : 273 Kbps
Channel(s) : 2 channels
Channel positions : Front: L R
Sampling rate : 48.0 KHz
Compression mode : Lossy
Stream size : 20.9 MiB (6%)
Source stream size : 20.9 MiB (6%)
Title : Stereo
Language : English
Encoded date : UTC 2015-11-01 18:00:50
Tagged date : UTC 2015-11-01 18:09:46
Перелік серій

Серія 1 - Рікануті в часі
Серія 2 - Мортова втеча у ніч
Серія 3 - Автоеротичне самопоглинання
Серія 4 - Згадати все
Серія 5 - Територія А
Серія 6 - Цей Рік певно сказився
Серія 7 - Великі негаразди у маленькому Санчезі
Серія 8 - Міжвимірне кабельне 2: Спокушаючи долю
Серія 9 - Чистильник
Серія 10 - Сквончове весілля
Джерело:
Особиста оцінка: 10 - без зайвих вагань рекомендую всім![url][/url]


Фріліч (завантажене не впливає на рейтинг)
 Трекер:    Зареєстрований   

Завантажити / скачати мультфільм українською



відео для новачків



 Зареєстрований:   2016-10-28 13:32
 Розмір:   3.44 GB 
 Оцінка мультсеріалу:   10/10 (Голосів: 23)
   
Час_настал 
VIP


З нами з: 01.07.10
Востаннє: 18.01.17
Повідомлень: 287

2015-12-10 11:16  
Додано 2 і 3 серії

У мене стався невеличкий збій, тому перезавантажте, будь ласка, торрент ще раз, бо роздачу було змінено.

Час_настал 
VIP


З нами з: 01.07.10
Востаннє: 18.01.17
Повідомлень: 287

2016-01-06 18:04  
Додано 4ту серію

Вибачте, знову збій. Дуже старе залізо, а на нове грошей немає. Перезавантажте торент файл.

Час_настал 
VIP


З нами з: 01.07.10
Востаннє: 18.01.17
Повідомлень: 287

2016-02-07 13:56  
Додано 5ту серію
Час_настал 
VIP


З нами з: 01.07.10
Востаннє: 18.01.17
Повідомлень: 287

2016-02-19 13:55  
Додано 6ту серію
Час_настал 
VIP


З нами з: 01.07.10
Востаннє: 18.01.17
Повідомлень: 287

2016-03-05 17:14  
Додано 7му серію
SHooZ 
Частий відвідувач


З нами з: 18.12.13
Востаннє: 18.01.17
Повідомлень: 29

2016-03-28 23:35  
коли наступна?
Час_настал 
VIP


З нами з: 01.07.10
Востаннє: 18.01.17
Повідомлень: 287

2016-03-29 09:20  
ЗаразHappy. Додано 8му серію.
Estranded 
VIP


З нами з: 09.02.14
Востаннє: 17.01.17
Повідомлень: 824

2016-03-30 09:29  
Було б класно, як би в описі додали посилання на релізи з озвученням.
Час_настал 
VIP


З нами з: 01.07.10
Востаннє: 18.01.17
Повідомлень: 287

2016-03-30 13:41  
Додав.
Час_настал 
VIP


З нами з: 01.07.10
Востаннє: 18.01.17
Повідомлень: 287

2016-04-17 09:11  
Додано 9ту серію
Час_настал 
VIP


З нами з: 01.07.10
Востаннє: 18.01.17
Повідомлень: 287

2016-04-25 11:09  
Додано останню 10-ту серію.
Час_настал 
VIP


З нами з: 01.07.10
Востаннє: 18.01.17
Повідомлень: 287

2016-10-28 13:33  
Замінено ушкоджений файл 3ї серії на робочий. Перезавантажте, будь ласка, торрент.
Ваш часовий пояс: GMT + 2 Години

Нова тема   Відповісти