Завантажити та скачати торренти українською


Чорний дрізд / Deadfall (2012) 720p Ukr/Eng | Sub Ukr/Eng/Pol

Нові коментарі

Нова тема   Відповісти
Автор Повідомлення
Anonymous 







2015-11-02 14:54  
Чорний дрізд / Deadfall (2012) 720p Ukr/Eng | Sub Ukr/Eng/Pol



Альтернативні постери






повнорозмірні зображення відкриються по кліку (з натиснутим CTRL чи кліком середньою кнопкою мишки - у новій вкладці)


Жанр: трилер, драма, криміналльний
Країна: США, Франція



Кінокомпанія: Magnolia Pictures, StudioCanal, 2929 Productions, Mutual Film Company, Madhouse Entertainment
Режисер: Штефан Руцовіцкі / Stefan Ruzowitzky
Актори: Ерік Бана / Eric Bana, Олівія Вайлд / Olivia Wilde, Чарлі Ганнем / Charlie Hunnam, Патрік Кертон / Patrick Kerton, Квасі Сонґві / Kwasi Songui, Кріс Крістофферсон / Kris Kristofferson, Сіссі Спейсек / Sissy Spacek, Тріт Вільямс / Treat Williams та інші

Сюжет:
Еддісон і Ліза переховуються після невдалого пограбування казино. Колишній боксер Джей прямує додому, щоб провести День Подяки в колі сім'ї. Доля невблаганно зводить цих людей, щоб вони зустріли Зло і вступили у сутичку з ним.


Рейтинг MPAA: R - особам до 17 років обов'язкова присутність батьків або дорослого опікуна
Вікова категорія: 16+

Тривалість: 01:34:38
Якість: 720p [CtrlHD]
Відео:
кодек:
розмір кадру: 1280 х 544
бітрейт: 6889 кбіт/с

Аудіо # 1:
мова: українська
переклад: багатоголосий закадровий
ролі озвучили: Олег Лепенець, Юлія Перенчук, Олесь Гімбаржевський, Лідія Муращенко
кодек: 2.0
бітрейт: 192 кбіт/с

Аудіо # 2:
мова: англійська
переклад: оригінал
кодек: 5.1
бітрейт: 1509 кбіт/с

Субтитри # 1:
мова: українська
тип: програмні (м'які)
формат: *.srt

Субтитри # 2-3:
мова: англійська (повні, SDH)
тип: програмні (м'які)
формат: *.srt

Субтитри # 4:
мова: польська
тип: програмні (м'які)
формат: *.srt

Збережено оригінальні розділи, як на Blu-ray.
MediaInfo
Код:
General
Unique ID                   : 205426900934599356772468584142776835112 (0x9A8BC83072C0077F889703F118A81C28)
Complete name               : Deadfall (2012) [Ukr,Eng sub.Ukr,Eng,Pol] 720p [Hurtom].mkv
Format                      : Matroska
Format version              : Version 4 / Version 2
File size                   : 5.67 GiB
Duration                    : 1h 34mn
Overall bit rate            : 8 580 Kbps
Movie name                  : Чорний дрізд / Deadfall (2012) [Ukr,Eng sub.Ukr,Eng,Pol] 720p [Hurtom-igor911]
Encoded date                : UTC 2015-11-02 10:56:43
Writing application         : mkvmerge v8.5.1 ('Where you lead I will follow') 64bit
Writing library             : libebml v1.3.3 + libmatroska v1.4.4
Attachements                : cover.jpg
DURATION                    : 01:34:38.368000000
NUMBER_OF_FRAMES            : 177449
NUMBER_OF_BYTES             : 136280832
_STATISTICS_WRITING_APP     : mkvmerge v8.5.1 ('Where you lead I will follow') 64bit
_STATISTICS_WRITING_DATE_UT : 2015-11-02 10:56:43
_STATISTICS_TAGS            : BPS DURATION NUMBER_OF_FRAMES NUMBER_OF_BYTES

Video
ID                          : 1
Format                      : AVC
Format/Info                 : Advanced Video Codec
Format profile              : [email protected]
Format settings, CABAC      : Yes
Format settings, ReFrames   : 12 frames
Codec ID                    : V_MPEG4/ISO/AVC
Duration                    : 1h 34mn
Bit rate                    : 6 889 Kbps
Width                       : 1 280 pixels
Height                      : 544 pixels
Display aspect ratio        : 2.35:1
Frame rate mode             : Constant
Frame rate                  : 23.976 fps
Color space                 : YUV
Chroma subsampling          : 4:2:0
Bit depth                   : 8 bits
Scan type                   : Progressive
Bits/(Pixel*Frame)          : 0.413
Stream size                 : 4.43 GiB (78%)
Title                       : Чорний дрізд / Черный дрозд / Deadfall (2012) 720p [CtrlHD]
Writing library             : core 129 r2245 bc13772
Encoding settings           : cabac=1 / ref=12 / deblock=1:-3:-3 / analyse=0x3:0x113 / me=tesa / subme=10 / psy=1 / psy_rd=1.00:0.00 / mixed_ref=1 / me_range=24 / chroma_me=1 / trellis=2 / 8x8dct=1 / cqm=0 / deadzone=21,11 / fast_pskip=0 / chroma_qp_offset=-2 / threads=12 / lookahead_threads=2 / sliced_threads=0 / nr=0 / decimate=0 / interlaced=0 / bluray_compat=0 / constrained_intra=0 / bframes=8 / b_pyramid=2 / b_adapt=2 / b_bias=0 / direct=3 / weightb=1 / open_gop=0 / weightp=2 / keyint=250 / keyint_min=23 / scenecut=40 / intra_refresh=0 / rc=2pass / mbtree=0 / bitrate=6889 / ratetol=1.0 / qcomp=0.70 / qpmin=0 / qpmax=69 / qpstep=4 / cplxblur=20.0 / qblur=0.5 / ip_ratio=1.40 / pb_ratio=1.12 / aq=1:0.96
Language                    : English
Default                     : Yes
Forced                      : No
DURATION                    : 01:34:38.298000000
NUMBER_OF_FRAMES            : 136143
NUMBER_OF_BYTES             : 4879870877
_STATISTICS_WRITING_APP     : mkvmerge v8.5.1 ('Where you lead I will follow') 64bit
_STATISTICS_WRITING_DATE_UT : 2015-11-02 10:56:43
_STATISTICS_TAGS            : BPS DURATION NUMBER_OF_FRAMES NUMBER_OF_BYTES

Audio #1
ID                          : 2
Format                      : AC-3
Format/Info                 : Audio Coding 3
Mode extension              : CM (complete main)
Format settings, Endianness : Big
Codec ID                    : A_AC3
Duration                    : 1h 34mn
Bit rate mode               : Constant
Bit rate                    : 192 Kbps
Channel(s)                  : 2 channels
Channel positions           : Front: L R
Sampling rate               : 48.0 KHz
Compression mode            : Lossy
Stream size                 : 130 MiB (2%)
Title                       : MVO [1+1] 2.0 192 kbps [Hurtom-Gelios,slavik_v_z,POMEO]
Language                    : Ukrainian
Default                     : Yes
Forced                      : No

Audio #2
ID                          : 3
Format                      :
Format/Info                 : Digital Theater Systems
Mode                        : 16
Format settings, Endianness : Big
Codec ID                    : A_DTS
Duration                    : 1h 34mn
Bit rate mode               : Constant
Bit rate                    : 1 509 Kbps
Channel(s)                  : 6 channels
Channel positions           : Front: L C R, Side: L R, LFE
Sampling rate               : 48.0 KHz
Bit depth                   : 16 bits
Compression mode            : Lossy
Stream size                 : 1 021 MiB (18%)
Title                       : Original, 5.1 1509 kbps
Language                    : English
Default                     : No
Forced                      : No

Text #1
ID                          : 4
Format                      : UTF-8
Codec ID                    : S_TEXT/UTF8
Codec ID/Info               : UTF-8 Plain Text
Title                       : Ukr full [Hurtom-Vasua95,Віктор]
Language                    : Ukrainian
Default                     : No
Forced                      : No

Text #2
ID                          : 5
Format                      : UTF-8
Codec ID                    : S_TEXT/UTF8
Codec ID/Info               : UTF-8 Plain Text
Title                       : Eng full
Language                    : English
Default                     : No
Forced                      : No

Text #3
ID                          : 6
Format                      : UTF-8
Codec ID                    : S_TEXT/UTF8
Codec ID/Info               : UTF-8 Plain Text
Title                       : eng SDH
Language                    : English
Default                     : No
Forced                      : No

Text #4
ID                          : 7
Format                      : UTF-8
Codec ID                    : S_TEXT/UTF8
Codec ID/Info               : UTF-8 Plain Text
Title                       : Pol full
Language                    : Polish
Default                     : No
Forced                      : No

Menu
00:00:00.000                : en:00:00:00.000
00:08:18.581                : en:00:08:18.581
00:18:18.931                : en:00:18:18.931
00:28:45.474                : en:00:28:45.474
00:35:57.697                : en:00:35:57.697
00:44:25.663                : en:00:44:25.663
00:53:32.793                : en:00:53:32.793
01:02:49.891                : en:01:02:49.891
01:09:32.168                : en:01:09:32.168
01:17:17.967                : en:01:17:17.967
01:22:01.834                : en:01:22:01.834
01:28:27.719                : en:01:28:27.719
Оригінал <----------> Ріп







Джерела та подяки:
ріп відео - CtrlHD (HDbits); українська доріжка - Gelios - зведення, slavik_v_z, POMEO - запис з ТБ; українські субтитри - Vasua95 (розпізнавання), Віктор (редагування), українізовані постери - Gelios, maksym1990; фільмографії акторів та інформація про озвучення - Віктор (всі - Гуртом).


В українському прокаті цей фільм демонструвався (Top Film Distribution) лише з російським дубляжем та українськими субтитрами






ЗАЛИШАЙТЕСЬ ЯКОМОГА ДОВШЕ НА РОЗДАЧІ!

СКАЧАВ САМ - ДАЙ СКАЧАТИ ІНШИМ


 Трекер:    Зареєстрований   

Завантажити / скачати фільм українською



відео для новачків



 Зареєстрований:   2015-11-02 14:54
 Розмір:   5.67 GB 
 Оцінка фільму:   4.2/10 (Голосів: 17)
   
Інші релізи
   Чорний дрізд / Deadfall (2012) 1080p Ukr/Eng | Sub Ukr/Eng ninenine  0 / 0   8.03 GB   2015-11-02 16:00 
   Чорний дрізд / Deadfall (2012) 2xUkr/Eng | Sub Ukr/Eng Gelios  8 / 0   1.46 GB   2015-11-01 22:45 
   Пастка / Deadfall (2012) AVC Eng | Sub Ukr/Eng Віктор  0 / 0   1.89 GB   2013-03-15 01:15 
Ваш часовий пояс: GMT + 2 Години

Нова тема   Відповісти