Історія світу / History of the World (2012) 720p Ukr/Eng

Нові коментарі

Нова тема   Відповісти
Автор Повідомлення
Anonymous 







2015-11-01 21:43  
Історія світу / History of the World (2012) 720p Ukr/Eng


Жанр: документальний
Країна: США



Кінокомпанія: British Broadcasting Corporation (BBC), Discovery Channel, Erste Weltweit
Режисер: Кетрін Тейлор
Сюжет:
70 тисяч років, один світ і сотні подій, які змінили нашу історію! Вирушайте разом з «Мега» у вражаючу подорож крізь час і простір та побачте на власні очі людей, явища і події, які сформували світ таким, яким ми знаємо його сьогодні. Від перших поселень – до падіння величних цивілізацій, від наскельних малюнків – до підкорення космосу! Дивіться історії воєн та великих правителів, героїв та тиранів, вражаючих відкриттів і смертоносних катастроф у проекті «Історія світу» на «Мега»!

Падіння Римської імперії, дивовижні малюнки Наска в Перу та величні піраміди Єгипту, подорожі Колумба й Марко Поло, кровопролитні війни, революції, промисловий переворот, блискавичні польоти до зірок, неймовірні відкриття Архімеда та Ейнштейна… Кожен з 8-ми епізодів проекту – важлива сторінка нашого минулого. Дізнайтесь усе про знакові історичні події останніх 70 тисяч років у проекті «Історія світу».


Перелік серій:
1.Виживання / Survival
2.Доба імперій / Age of Empire
3.Слово і меч / The Word and the Sword
4.У світі знань / Into the Light
5.Епоха грабіжництва / Age of Plunder
6.Революція / Revolution
7.Індустріальна епоха / Age of Industry
8.Доба крайнощів / Age of Extremes

Тривалість: ~50 хв. серія
Якість: 720p
Відео:
кодек:
розмір кадру: 1280 х 720
бітрейт: ~5600 кб/с

Аудіо # 1:
мова: українська
переклад: двоголосий закадровий
кодек: 2.0
бітрейт: 192 кб/с

Аудіо # 2:
мова: англійська
переклад: оригінал
кодек: 2.0
бітрейт: 640 кб/с
Джерело озвучення:
MediaInfo:
General
Unique ID : 178415617940918362748973514016553359553 (0x8639991DFDB3CE34AE4A803E70F6D8C1)
Complete name : E:\History of the World (2012) 720p [Ukr. Eng] [Hurtom]\E01 - Survival (2012) 720p [Ukr, Eng] [Hurtom].mkv
Format : Matroska
Format version : Version 4 / Version 2
File size : 2.32 GiB
Duration : 51 min
Overall bit rate : 6 414 kb/s
Encoded date : UTC 2016-07-31 13:38:58
Writing application : mkvmerge v7.6.0 ('Garden of Dreams') 64bit built on Feb 8 2015 13:04:34
Writing library : libebml v1.3.1 + libmatroska v1.4.2

Video
ID : 1
Format : AVC
Format/Info : Advanced Video Codec
Format profile : [email protected]
Format settings, CABAC : Yes
Format settings, ReFrames : 9 frames
Codec ID : V_MPEG4/ISO/AVC
Duration : 51 min
Bit rate : 5 600 kb/s
Width : 1 280 pixels
Height : 720 pixels
Display aspect ratio : 16:9
Frame rate mode : Constant
Frame rate : 25.000 FPS
Color space : YUV
Chroma subsampling : 4:2:0
Bit depth : 8 bits
Scan type : Progressive
Bits/(Pixel*Frame) : 0.243
Stream size : 2.02 GiB (87%)
Writing library : core 138 r2358 9e941d1
Encoding settings : cabac=1 / ref=9 / deblock=1:-3:-3 / analyse=0x3:0x133 / me=umh / subme=10 / psy=1 / psy_rd=1.00:0.05 / mixed_ref=1 / me_range=32 / chroma_me=1 / trellis=2 / 8x8dct=1 / cqm=0 / deadzone=21,11 / fast_pskip=1 / chroma_qp_offset=-5 / threads=12 / lookahead_threads=2 / sliced_threads=0 / nr=0 / decimate=0 / interlaced=0 / bluray_compat=0 / constrained_intra=0 / bframes=8 / b_pyramid=2 / b_adapt=2 / b_bias=0 / direct=3 / weightb=1 / open_gop=0 / weightp=2 / keyint=250 / keyint_min=25 / scenecut=40 / intra_refresh=0 / rc_lookahead=60 / rc=2pass / mbtree=1 / bitrate=5600 / ratetol=1.0 / qcomp=0.60 / qpmin=10 / qpmax=69 / qpstep=4 / cplxblur=20.0 / qblur=0.5 / vbv_maxrate=25000 / vbv_bufsize=25000 / nal_hrd=none / ip_ratio=1.40 / aq=1:0.80
Language : English
Default : Yes
Forced : No

Audio #1
ID : 2
Format : AC-3
Format/Info : Audio Coding 3
Mode extension : CM (complete main)
Format settings, Endianness : Big
Codec ID : A_AC3
Duration : 51 min
Bit rate mode : Constant
Bit rate : 192 kb/s
Channel(s) : 2 channels
Channel positions : Front: L R
Sampling rate : 48.0 kHz
Frame rate : 31.250 FPS (1536 spf)
Compression mode : Lossy
Stream size : 71.3 MiB (3%)
Language : Ukrainian
Default : Yes
Forced : No

Audio #2
ID : 3
Format : AC-3
Format/Info : Audio Coding 3
Mode extension : CM (complete main)
Format settings, Endianness : Big
Codec ID : A_AC3
Duration : 51 min
Bit rate mode : Constant
Bit rate : 640 kb/s
Channel(s) : 2 channels
Channel positions : Front: L R
Sampling rate : 48.0 kHz
Frame rate : 31.250 FPS (1536 spf)
Compression mode : Lossy
Stream size : 238 MiB (10%)
Language : English
Default : No
Forced : No

Подяка за допомогу пану scapuletti, та за постер пану Gelios.
Джерело:
Особиста оцінка: 10 - без зайвих вагань рекомендую всім!


Бронзовий реліз (на рейтинг впливає 75% завантаженого)
 Трекер:    Зареєстрований   

Завантажити торрент



відео для новачків



 Зареєстрований:   2016-07-31 16:38
 Розмір:   18.31 GB 
 Оцінка:   6.2/10 (Голосів: 30)
   
Ваш часовий пояс: GMT + 2 Години

Нова тема   Відповісти