Завантажити та скачати торренти українською


Ще одна з роду Болейн / The Other Boleyn Girl (2008) 1080p Ukr/Eng

Нові коментарі

Нова тема   Відповісти
Автор Повідомлення
Anonymous 







2015-10-31 11:18  
Ще одна з роду Болейн / The Other Boleyn Girl (2008) 1080p Ukr/Eng

Ще одна з роду Болейн / The Other Boleyn Girl (2008) 1080p Ukr/Eng


Жанр: історичний, драма, романтичний
Країна: Велика Британія, США



Кінокомпанія: Focus Features, Relativity Media
Режисер: Джастін Чадвік
Актори: Наталі Портман, Скарлет Йохансон, Ерік Бана, Джим Старгес, Крістін Скотт Томас

Сюжет:
Костюмована драма про епоху правління короля Генріха VIII з династії Тюдорів.
Двох сестер, Анну (Портман) та Марію (Йохансон), їх амбіційні батько та дядько ведуть до отримання влади й статусу при дворі шляхом завоювання кохання короля Генріха (Бана). Те, що починалось як допомога сім'ї, перетворюється на безжалісне суперництво між сестрами за ложе короля.


Тривалість: 01:55:35
Якість:
Відео:
кодек:
розмір кадру: 1920x1040
бітрейт: 8525 кб/с

Аудіо # 1:
мова: українська
переклад: професійний дубльований
кодек: 5.1
бітрейт: 384 кб/с

Аудіо # 2:
мова: англійська
переклад: оригінал
кодек: 5.1
бітрейт: 640 кб/с

Субтитри:
мова: англійська
тип: програмні (м'які)
формат: *.srt

Джерело озвучення:
MediaInfo

Код:
General
Unique ID                                : 213010806568797793767503220573034500791 (0xA040639B1148A6759C08F7CD8A9FD2B7)
Complete name                            : I:\MEDISASERVER\MyToloka\The Other Boleyn Girl (2008) 1080p [Ukr, Eng] [Hurtom].mkv
Format                                   : Matroska
Format version                           : Version 4 / Version 2
File size                                : 7.71 GiB
Duration                                 : 1h 55mn
Overall bit rate                         : 9 549 Kbps
Movie name                               : Еще одна из рода Болейн.(2008)..1080p.[envy]
Encoded date                             : UTC 2015-10-31 16:09:05
Writing application                      : mkvmerge v8.4.0 ('A better way to fly') 64bit
Writing library                          : libebml v1.3.1 + libmatroska v1.4.2
DURATION                                 : 01:48:06.396000000
NUMBER_OF_FRAMES                         : 1019
NUMBER_OF_BYTES                          : 36072
_STATISTICS_WRITING_APP                  : mkvmerge v8.4.0 ('A better way to fly') 64bit
_STATISTICS_WRITING_DATE_UTC             : 2015-10-31 16:09:05
_STATISTICS_TAGS                         : BPS DURATION NUMBER_OF_FRAMES NUMBER_OF_BYTES

Video
ID                                       : 2
Format                                   : AVC
Format/Info                              : Advanced Video Codec
Format profile                           : [email protected]
Format settings, CABAC                   : Yes
Format settings, ReFrames                : 4 frames
Codec ID                                 : V_MPEG4/ISO/AVC
Duration                                 : 1h 55mn
Bit rate                                 : 8 525 Kbps
Width                                    : 1 920 pixels
Height                                   : 1 040 pixels
Display aspect ratio                     : 1.85:1
Frame rate mode                          : Constant
Frame rate                               : 23.976 fps
Color space                              : YUV
Chroma subsampling                       : 4:2:0
Bit depth                                : 8 bits
Scan type                                : Progressive
Bits/(Pixel*Frame)                       : 0.178
Stream size                              : 6.73 GiB (87%)
Title                                    : The Other Boleyn Girl.(2008)..1080p.
Writing library                          : core 142 r2479 dd79a61
Encoding settings                        : cabac=1 / ref=4 / deblock=1:-3:-3 / analyse=0x3:0x113 / me=umh / subme=11 / psy=1 / psy_rd=1.00:0.00 / mixed_ref=1 / me_range=32 / chroma_me=1 / trellis=2 / 8x8dct=1 / cqm=0 / deadzone=21,11 / fast_pskip=0 / chroma_qp_offset=-2 / threads=12 / lookahead_threads=1 / sliced_threads=0 / nr=0 / decimate=1 / interlaced=0 / bluray_compat=0 / constrained_intra=0 / bframes=5 / b_pyramid=2 / b_adapt=2 / b_bias=0 / direct=3 / weightb=1 / open_gop=0 / weightp=2 / keyint=240 / keyint_min=23 / scenecut=40 / intra_refresh=0 / rc=2pass / mbtree=0 / bitrate=8525 / ratetol=2.0 / qcomp=0.60 / qpmin=0 / qpmax=69 / qpstep=4 / cplxblur=20.0 / qblur=0.5 / ip_ratio=1.40 / pb_ratio=1.30 / aq=2:0.90
Language                                 : English
Default                                  : Yes
Forced                                   : No

Audio #1
ID                                       : 1
Format                                   : AC-3
Format/Info                              : Audio Coding 3
Mode extension                           : CM (complete main)
Format settings, Endianness              : Big
Codec ID                                 : A_AC3
Duration                                 : 1h 55mn
Bit rate mode                            : Constant
Bit rate                                 : 384 Kbps
Channel(s)                               : 6 channels
Channel positions                        : Front: L C R, Side: L R, LFE
Sampling rate                            : 48.0 KHz
Compression mode                         : Lossy
Stream size                              : 317 MiB (4%)
Title                                    : Dub
Language                                 : Ukrainian
Default                                  : Yes
Forced                                   : No
DURATION                                 : 01:55:35.304000000
NUMBER_OF_FRAMES                         : 166281
NUMBER_OF_BYTES                          : 7388507905
_STATISTICS_WRITING_APP                  : mkvmerge v8.4.0 ('A better way to fly') 64bit
_STATISTICS_WRITING_DATE_UTC             : 2015-10-31 16:09:05
_STATISTICS_TAGS                         : BPS DURATION NUMBER_OF_FRAMES NUMBER_OF_BYTES

Audio #2
ID                                       : 3
Format                                   : AC-3
Format/Info                              : Audio Coding 3
Mode extension                           : CM (complete main)
Format settings, Endianness              : Big
Codec ID                                 : A_AC3
Duration                                 : 1h 55mn
Bit rate mode                            : Constant
Bit rate                                 : 640 Kbps
Channel(s)                               : 6 channels
Channel positions                        : Front: L C R, Side: L R, LFE
Sampling rate                            : 48.0 KHz
Compression mode                         : Lossy
Stream size                              : 529 MiB (7%)
Title                                    : Eng
Language                                 : English
Default                                  : No
Forced                                   : No

Text
ID                                       : 4
Format                                   : UTF-8
Codec ID                                 : S_TEXT/UTF8
Codec ID/Info                            : UTF-8 Plain Text
Title                                    : full
Language                                 : English
Default                                  : No
Forced                                   : No

Menu
00:00:00.000                             : :0:00:00.000
00:07:57.310                             : :0:07:57.310
00:16:15.474                             : :0:16:15.474
00:20:09.833                             : :0:20:09.833
00:28:41.511                             : :0:28:41.511
00:35:44.058                             : :0:35:44.058
00:42:45.396                             : :0:42:45.396
00:50:41.705                             : :0:50:41.705
00:57:35.702                             : :0:57:35.702
01:05:38.976                             : :1:05:38.976
01:13:05.172                             : :1:13:05.172
01:19:25.135                             : :1:19:25.135
01:26:15.003                             : :1:26:15.003
01:35:20.840                             : :1:35:20.840
01:41:12.775                             : :1:41:12.775
01:50:15.692                             : :1:50:15.692
Скріншоти
Джерело: &
Особиста оцінка: 8 - мені сподобалося


 Трекер:    Зареєстрований   

Завантажити / скачати фільм українською



відео для новачків



 Зареєстрований:   2015-10-31 18:31
 Розмір:   7.71 GB 
 Оцінка фільму:   9/10 (Голосів: 5)
   
igor911 
Відео Гуртом
Відео Гуртом


З нами з: 18.01.08
Востаннє: 05.12.16
Повідомлень: 5144

2015-10-31 18:44  
Вітаю з першим релізом!
Anonymous 







2015-10-31 18:49  
реліз оновлено о 18:31 - замінено відеоряд на якісніший (вибачте за незручності)
Ваш часовий пояс: GMT + 2 Години

Нова тема   Відповісти