Завантажити та скачати торренти українською


Yuriy Yaremchuk (Юрiй Яремчук) - Tenor Solo (2005) [FLAC] | Jazz

Нові коментарі

Нова тема   Відповісти
Останній раз роздавалося kolpavel (2016-12-05)
Автор Повідомлення
kolpavel 
VIP


З нами з: 04.05.14
Востаннє: 05.12.16
Повідомлень: 1059

2015-10-30 23:47  
Yuriy Yaremchuk (Юрiй Яремчук) - Tenor Solo (2005) [FLAC] | Jazz


Yuriy Yaremchuk (Юрiй Яремчук) - Tenor Solo (2005) [FLAC] | Jazz


Стиль: Avant-garde Jazz
Країна, місто: Україна, Львiв
Сайти: Офіційний сайт
Видавець: 3yar Records
Виконавці:
Юрій Яремчук - тенор саксофон
Пісні:

    01. Part 1 - 5:46
    02. Part 2 - 10:19
    03. Part 3 - 4:57
    04. Part 4 - 11:08
    05. Part 5 - 9:16
    06. Part 6 - 6:19
    07. Part 7 - 10:20

Тривалість: 00:58:05
Мова: інструментальні композиції
Аудіо-кодек: FLAC
Бітрейт: 441-582 кб/с
Джерело: трекер
Додаткова інформація:
EAC log
Exact Audio Copy V0.99 prebeta 4 from 23. January 2008

EAC extraction logfile from 7. November 2009, 22:33

Yuriy Yaremchuk / Tenor Solo

Used drive : HL-DT-STDVDRAM GSA-H10A Adapter: 1 ID: 3

Read mode : Secure
Utilize accurate stream : Yes
Defeat audio cache : Yes
Make use of C2 pointers : No

Read offset correction : 667
Overread into Lead-In and Lead-Out : No
Fill up missing offset samples with silence : Yes
Delete leading and trailing silent blocks : No
Null samples used in CRC calculations : Yes
Used interface : Native Win32 interface for Win NT & 2000
Gap handling : Appended to previous track

Used output format : User Defined Encoder
Selected bitrate : 1024 kBit/s
Quality : High
Add ID3 tag : No
Command line compressor : C:\Program Files\FLAC\flac.exe
Additional command line options : -8 -V -T "ARTIST=%a" -T "TITLE=%t" -T "ALBUM=%g" -T "DATE=%y" -T "TRACKNUMBER=%n" -T "GENRE=%m" -T "COMMENT=EAC FLAC -8" %s

TOC of the extracted CD

Track | Start | Length | Start sector | End sector
---------------------------------------------------------
1 | 0:00.00 | 5:46.46 | 0 | 25995
2 | 5:46.46 | 10:19.06 | 25996 | 72426
3 | 16:05.52 | 4:57.40 | 72427 | 94741
4 | 21:03.17 | 11:08.56 | 94742 | 144897
5 | 32:11.73 | 9:16.01 | 144898 | 186598
6 | 41:27.74 | 6:19.72 | 186599 | 215095
7 | 47:47.71 | 10:20.47 | 215096 | 261642

Track 1

Filename D:\temp\!!\01. Yuriy Yaremchuk – Part 1.wav

Pre-gap length 0:00:02.00

Peak level 69.3 %
Track quality 100.0 %
Test CRC 23BBAA70
Copy CRC 23BBAA70
Track not present in AccurateRip database
Copy OK

Track 2

Filename D:\temp\!!\02. Yuriy Yaremchuk – Part 2.wav

Pre-gap length 0:00:02.00

Peak level 84.7 %
Track quality 100.0 %
Test CRC 963F4B83
Copy CRC 963F4B83
Track not present in AccurateRip database
Copy OK

Track 3

Filename D:\temp\!!\03. Yuriy Yaremchuk – Part 3.wav

Pre-gap length 0:00:02.00

Peak level 69.5 %
Track quality 99.9 %
Test CRC A4F9AA3F
Copy CRC A4F9AA3F
Track not present in AccurateRip database
Copy OK

Track 4

Filename D:\temp\!!\04. Yuriy Yaremchuk – Part 4.wav

Pre-gap length 0:00:02.00

Peak level 87.7 %
Track quality 100.0 %
Test CRC 79B50DC8
Copy CRC 79B50DC8
Track not present in AccurateRip database
Copy OK

Track 5

Filename D:\temp\!!\05. Yuriy Yaremchuk – Part 5.wav

Pre-gap length 0:00:02.00

Peak level 79.8 %
Track quality 100.0 %
Test CRC 051EF212
Copy CRC 051EF212
Track not present in AccurateRip database
Copy OK

Track 6

Filename D:\temp\!!\06. Yuriy Yaremchuk – Part 6.wav

Pre-gap length 0:00:02.00

Peak level 75.2 %
Track quality 100.0 %
Test CRC 0605F9D0
Copy CRC 0605F9D0
Track not present in AccurateRip database
Copy OK

Track 7

Filename D:\temp\!!\07. Yuriy Yaremchuk – Part 7.wav

Pre-gap length 0:00:02.00

Peak level 80.8 %
Track quality 100.0 %
Test CRC 814344FB
Copy CRC 814344FB
Track not present in AccurateRip database
Copy OK

None of the tracks are present in the AccurateRip database

No errors occurred

End of status report


Якщо Ви справді бажаєте підтримати українське - після прослуховування, якщо музика вам сподобалась, придбайте ліцензійний диск. Підтримаймо вітчизняних виконавців!


Срібний реліз (на рейтинг впливає 50% завантаженого)
 Трекер:    Зареєстрований   

Завантажити / скачати українську музику



відео для новачків



 Зареєстрований:   2015-10-30 23:47
 Розмір:   213 MB 
 Оцінка музики:   10/10 (Голосів: 1)
   
Ваш часовий пояс: GMT + 2 Години

Нова тема   Відповісти