Завантажити та скачати торренти українською


Natalka Polovinka, Yuriy Yaremchuk (Наталка Половинка, Юрiй Яремчук) - Homo Ludens (2003) [FLAC] | Jazz

Нові коментарі

Нова тема   Відповісти
Автор Повідомлення
kolpavel 
VIP


З нами з: 04.05.14
Востаннє: 04.12.16
Повідомлень: 1060

2015-10-30 16:44  
Natalka Polovinka, Yuriy Yaremchuk (Наталка Половинка, Юрiй Яремчук) - Homo Ludens (2003) [FLAC] | Jazz


Natalka Polovinka, Yuriy Yaremchuk (Наталка Половинка, Юрiй Яремчук) - Homo Ludens (2003) [FLAC] | Jazz


Стиль: Free Improvisation / Avant-Garde / Experimental
Країна, місто: Україна, Львiв
Сайти: Офіційний сайт
Видавець: Long Arms Records
Виконавці:
(1–5) Наталка Половинка — голос, перкусія,
Юрий Яремчук — сопрано-саксофон, тенор-саксофон, бас-кларнет, перкусія, голос.

(6) Наталка Половинка — голос
Юрий Яремчук — сопрано-саксофон
Пісні:
    1–5. п'ятьма фрагментами

    фрагмент 1 - 3:50

    фрагмент 2 - 5:49

    фрагмент 3 - 5:27

    фрагмент 4 - 6:35

    фрагмент 5 - 4:18

    6. homo ludens II - 29:40

Тривалість: 00:55:37
Мова: українська
Аудіо-кодек: FLAC
Бітрейт: 641 кб/с
Джерело: трекер
Додаткова інформація: Записано 1 листопада 2001 в MD Studio, Львів, Україна.
EAC log
Exact Audio Copy V1.0 beta 3 from 29. August 2011

Отчёт EAC об извлечении, выполненном 2. декабря 2013, 14:05

Yaremchuk & Polovinka / Homo Ludens

Дисковод: MATSHITADVD-RAM UJ890AS Adapter: 0 ID: 1

Режим чтения : Достоверность
Использование точного потока : Да
Отключение кэша аудио : Да
Использование указателей C2 : Нет

Коррекция смещения при чтении : 102
Способность читать области Lead-in и Lead-out : Нет
Заполнение пропущенных сэмплов тишиной : Да
Удаление блоков с тишиной в начале и конце : Нет
При вычислениях CRC использовались нулевые сэмплы : Да
Интерфейс : Встроенный Win32-интерфейс для Win NT/2000

Выходной формат : Пользовательский кодировщик
Выбранный битрейт : 896 kBit/s
Качество : Высокий
Добавление ID3-тега : Нет
Утилита сжатия : C:\Program Files\Exact Audio Copy\Flac\flac.exe
Дополнительные параметры : -6 -V -T "ARTIST=%artist%" -T "TITLE=%title%" -T "ALBUM=%albumtitle%" -T "DATE=%year%" -T "TRACKNUMBER=%tracknr%" -T "GENRE=%genre%" -T "COMMENT=%comment%" -T "BAND=%albuminterpret%" -T "ALBUMARTIST=%albuminterpret%" -T "COMPOSER=%composer%" %haslyrics%--tag-from-file=LYRICS="%lyricsfile%"%haslyrics% -T "DISCNUMBER=%cdnumber%" -T "TOTALDISCS=%totalcds%" -T "TOTALTRACKS=%numtracks%" %hascover%--picture="%coverfile%"%hascover% %source% -o %dest%

TOC извлечённого CD

Трек | Старт | Длительность | Начальный сектор | Конечный сектор
---------------------------------------------------------------------
1 | 0:00.00 | 3:49.00 | 0 | 17174
2 | 3:49.00 | 5:48.73 | 17175 | 43347
3 | 9:37.73 | 5:26.17 | 43348 | 67814
4 | 15:04.15 | 6:35.20 | 67815 | 97459
5 | 21:39.35 | 4:17.48 | 97460 | 116782
6 | 25:57.08 | 29:40.27 | 116783 | 250309

Характеристики диапазона извлечения и сообщения об ошибках

Выбранный диапазон

Имя файла C:\Users\...\Music\Yaremchuk & Polovinka - (2003) Homo Ludens.flac\Yaremchuk & Polovinka - Homo Ludens.wav

Пиковый уровень 100.0 %
Скорость извлечения 2.5 X
Качество диапазона 100.0 %
CRC теста 7A2C6D83
CRC копии 7A2C6D83
Копирование... OK

Ошибок не произошло

Конец отчёта

==== Контрольная сумма отчёта D8069C9FF3433F9EA6429D5A70951AAE55C1D749A347F5B5DFBA33915F8E9F5B ====


Якщо Ви справді бажаєте підтримати українське - після прослуховування, якщо музика вам сподобалась, придбайте ліцензійний диск. Підтримаймо вітчизняних виконавців!


Срібний реліз (на рейтинг впливає 50% завантаженого)
 Трекер:    Зареєстрований   

Завантажити / скачати українську музику



відео для новачків



 Зареєстрований:   2015-10-30 16:44
 Розмір:   257 MB 
 Оцінка музики:   10/10 (Голосів: 1)
   
Форкуш 
VIP


З нами з: 03.02.10
Востаннє: 04.12.16
Повідомлень: 1535

2015-10-31 23:11  
чому Polovinka а не Polovynka???
ssTAss 
Модератор музики


З нами з: 05.07.08
Востаннє: 04.12.16
Повідомлень: 10937

2015-10-31 23:35  
Форкуш написано:
чому Polovinka а не Polovynka???

автор написав так, як на диску
все правильно
ось тут краще видно
тиць
а от Yuriy без другого "y" мало б бути - Yuri

Форкуш 
VIP


З нами з: 03.02.10
Востаннє: 04.12.16
Повідомлень: 1535

2015-10-31 23:40  
Шкода, що так і поширюються помилки в транслітерації...
ssTAss 
Модератор музики


З нами з: 05.07.08
Востаннє: 04.12.16
Повідомлень: 10937

2015-11-01 00:03  
Форкуш'е, дійсно шкода, але диск видав кацапський лейбл, тому і не дивно
kolpavel 
VIP


З нами з: 04.05.14
Востаннє: 04.12.16
Повідомлень: 1060

2015-11-12 12:58  
"Все проекты и релизы тем или иным образом связаны с Россией, российской музыкой или российскими музыкантами". - Кацапи без цього не можуть. Хоча, що тут вже кацапського?!
Ваш часовий пояс: GMT + 2 Години

Нова тема   Відповісти