Завантажити та скачати торренти українською


Yuriy Yaremchuk, Mark Tokar, Klaus Kugel - Yatoku (2007) [FLAC] | Jazz

Нові коментарі

Нова тема   Відповісти
Останній раз роздавалося ctokkc (2016-12-03)
Автор Повідомлення
kolpavel 
VIP


З нами з: 04.05.14
Востаннє: 02.12.16
Повідомлень: 1059

2015-10-30 14:00  
Yuriy Yaremchuk, Mark Tokar, Klaus Kugel - Yatoku (2007) [FLAC] | Jazz


Yuriy Yaremchuk, Mark Tokar, Klaus Kugel - Yatoku (2007) [FLAC] | Jazz


Стиль: Free Jazz
Країна, місто: Україна, Львiв
Сайти: Офіційний сайт
Видавець: Not Two
Виконавці:
Юрій Яремчук - сопрано і тенор саксофони, кларнет, бас-кларнет
Марк Токар - контрабас
Клаус Кугель - ударні
Пісні:
    1. Yatoku - 12:14
    2. Tokuya - 8:23
    3. Kuyato - 8:45
    4. Yakuto - 19:36
    5. Toyaku - 7:30
    6. Kutoya - 8:04

Тривалість: 01:04:26
Мова: інструментальні композиції
Аудіо-кодек: FLAC
Бітрейт: 552-756 кб/с
Джерело: трекер
Додаткова інформація:
EAC log
Exact Audio Copy V0.99 prebeta 3 from 28. July 2007

EAC extraction logfile from 11. January 2008, 15:42

Yuriy Yaremchuk, Mark Tokar, Klaus Kugel / YATOKU

Used drive : HL-DT-STDVD-RAM GSA-H30N Adapter: 2 ID: 0

Read mode : Secure
Utilize accurate stream : Yes
Defeat audio cache : No
Make use of C2 pointers : No

Read offset correction : 0
Overread into Lead-In and Lead-Out : No
Fill up missing offset samples with silence : Yes
Delete leading and trailing silent blocks : No
Null samples used in CRC calculations : Yes
Used interface : Native Win32 interface for Win NT & 2000
Gap handling : Appended to previous track

Used output format : User Defined Encoder
Selected bitrate : 128 kBit/s
Quality : High
Add ID3 tag : No
Command line compressor : C:\Program Files\FLAC\flac.exe
Additional command line options : -8 -A tukey(0.25) -A gauss(0.1875) -b 4096 -V -T "artist=%a" -T "title=%t" -T "album=%g" -T "date=%y" -T "tracknumber=%n" -T "genre=%m" %s --sector-align

TOC of the extracted CD

Track | Start | Length | Start sector | End sector
---------------------------------------------------------
1 | 0:00.00 | 12:13.01 | 0 | 54975
2 | 12:13.01 | 8:22.04 | 54976 | 92629
3 | 20:35.05 | 8:44.27 | 92630 | 131956
4 | 29:19.32 | 19:34.14 | 131957 | 220020
5 | 48:53.46 | 7:28.64 | 220021 | 253684
6 | 56:22.35 | 8:03.12 | 253685 | 289921

Track 1

Filename C:\temp\Yuriy Yaremchuk, Mark Tokar, Klaus Kugel - YATOKU\01 - Yuriy Yaremchuk, Mark Tokar, Klaus Kugel - YATOKU.wav

Pre-gap length 0:00:02.00

Peak level 81.6 %
Track quality 100.0 %
Test CRC 7399F894
Copy CRC 7399F894
Copy OK

Track 2

Filename C:\temp\Yuriy Yaremchuk, Mark Tokar, Klaus Kugel - YATOKU\02 - Yuriy Yaremchuk, Mark Tokar, Klaus Kugel - TOKUYA.wav

Peak level 67.2 %
Track quality 100.0 %
Test CRC 5BC93AE7
Copy CRC 5BC93AE7
Copy OK

Track 3

Filename C:\temp\Yuriy Yaremchuk, Mark Tokar, Klaus Kugel - YATOKU\03 - Yuriy Yaremchuk, Mark Tokar, Klaus Kugel - KUYATO.wav

Peak level 64.4 %
Track quality 100.0 %
Test CRC 4D07AED0
Copy CRC 4D07AED0
Copy OK

Track 4

Filename C:\temp\Yuriy Yaremchuk, Mark Tokar, Klaus Kugel - YATOKU\04 - Yuriy Yaremchuk, Mark Tokar, Klaus Kugel - YAKUTO.wav

Peak level 72.0 %
Track quality 99.9 %
Test CRC DF20FA52
Copy CRC DF20FA52
Copy OK

Track 5

Filename C:\temp\Yuriy Yaremchuk, Mark Tokar, Klaus Kugel - YATOKU\05 - Yuriy Yaremchuk, Mark Tokar, Klaus Kugel - TOYAKU.wav

Peak level 71.0 %
Track quality 100.0 %
Test CRC BEFE4DD9
Copy CRC BEFE4DD9
Copy OK

Track 6

Filename C:\temp\Yuriy Yaremchuk, Mark Tokar, Klaus Kugel - YATOKU\06 - Yuriy Yaremchuk, Mark Tokar, Klaus Kugel - KUTOYA.wav

Peak level 42.6 %
Track quality 99.9 %
Test CRC 10F31281
Copy CRC 10F31281
Copy OK

No errors occurred

End of status report


Якщо Ви справді бажаєте підтримати українське - після прослуховування, якщо музика вам сподобалась, придбайте ліцензійний диск. Підтримаймо вітчизняних виконавців!


Срібний реліз (на рейтинг впливає 50% завантаженого)
 Трекер:    Зареєстрований   

Завантажити / скачати українську музику



відео для новачків



 Зареєстрований:   2015-10-30 14:00
 Розмір:   317 MB 
 Оцінка музики:   10/10 (Голосів: 1)
   
Ваш часовий пояс: GMT + 2 Години

Нова тема   Відповісти