Завантажити та скачати торренти українською


Юрій Андрухович - Колекція (2 альбоми) (2004, 2015) [FLAC] | Avantgarde Jazz

Нові коментарі

Нова тема   Відповісти
Автор Повідомлення
gosha.samovar 
VIP


З нами з: 08.09.10
Востаннє: 02.12.16
Повідомлень: 400

2015-10-30 12:14  
Юрій Андрухович - Колекція (2 альбоми) (2004, 2015) [FLAC] | Avantgarde Jazz



Стиль: Avantgarde Jazz
Країна, місто: Україна, Івано-Франківськ
Сайти: Офіційний сайт
2004 - Андрухович.Trzaska.Mazolewski.Moretti - Andruxoїd


    01. Welcome To My Foolish Dreamland
    02. And The Third Angel Sounded
    03. California Dreaming
    04. And Everybody Fucks You
    05. Seven-Eleven
    06. Glory To The Camels
    07. Life Is A Long Song
    08. Індія I
    09. Індія II
    10. Індія III
    11. Індія IV
    12. Індія V
    13. I Wanna Woman
    14. Bombing New York City
    15. The News Of The World
    16. Back In USSR
    17. Without You-2
    18. Козак Ямайка (Bonus truck)


Видавець: Юрій Андрухович
Виконавці:
    Юрій Андрухович - голос
    Миколай Тшаска (Mikołaj Trzaska) - альт-саксофон, бас-кларнет, гармоніка
    Войцех Мазолевскі (Wojciech Mazolewski) - електричний бас, контрабас (double bass)
    Мачіо Моретті (Macio Moretti) - ударні, дитяче піаніно і 2 гумових поросятка Happy (baby keyboard & two rubber pigs)
    Зоська Голембьовска (Zośka Gołębiowska) - флейта (5, 14, 17)

    Музика: Андрухович/Trzaska/Mazolewski/Moretti
    Вірші: Юрій Андрухович
EAC log
Exact Audio Copy V1.0 beta 3 from 29. August 2011

Отчёт EAC об извлечении, выполненном 30. октября 2015, 0:35

Андрухович.Trzaska.Mazolewski.Moretti / Andruxoїd

Дисковод: HL-DT-STDVD-RAM GSA-H58N Adapter: 0 ID: 0

Режим чтения : Достоверность
Использование точного потока : Да
Отключение кэша аудио : Да
Использование указателей C2 : Нет

Коррекция смещения при чтении : 102
Способность читать области Lead-in и Lead-out : Нет
Заполнение пропущенных сэмплов тишиной : Да
Удаление блоков с тишиной в начале и конце : Нет
При вычислениях CRC использовались нулевые сэмплы : Да
Интерфейс : Встроенный Win32-интерфейс для Win NT/2000

Выходной формат : Пользовательский кодировщик
Выбранный битрейт : 1024 kBit/s
Качество : Высокий
Добавление ID3-тега : Нет
Утилита сжатия : D:\soft_2\EAC\Exact Audio Copy\Flac\flac.exe
Дополнительные параметры : -V -8 -T "Date=%year%" -T "Genre=%genre%" %source%

TOC извлечённого CD

Трек | Старт | Длительность | Начальный сектор | Конечный сектор
---------------------------------------------------------------------
1 | 0:00.00 | 3:02.00 | 0 | 13649
2 | 3:02.00 | 3:01.57 | 13650 | 27281
3 | 6:03.57 | 3:31.57 | 27282 | 43163
4 | 9:35.39 | 1:52.38 | 43164 | 51601
5 | 11:28.02 | 4:10.19 | 51602 | 70370
6 | 15:38.21 | 4:45.38 | 70371 | 91783
7 | 20:23.59 | 3:09.57 | 91784 | 106015
8 | 23:33.41 | 2:02.00 | 106016 | 115165
9 | 25:35.41 | 1:45.38 | 115166 | 123078
10 | 27:21.04 | 2:34.38 | 123079 | 134666
11 | 29:55.42 | 2:15.38 | 134667 | 144829
12 | 32:11.05 | 3:28.00 | 144830 | 160429
13 | 35:39.05 | 4:45.38 | 160430 | 181842
14 | 40:24.43 | 2:20.38 | 181843 | 192380
15 | 42:45.06 | 3:03.19 | 192381 | 206124
16 | 45:48.25 | 2:39.57 | 206125 | 218106
17 | 48:28.07 | 5:05.00 | 218107 | 240981
18 | 53:33.07 | 5:19.00 | 240982 | 264906

Характеристики диапазона извлечения и сообщения об ошибках

Выбранный диапазон

Имя файла N:\Роздачі\Андрухович+Karbido\Andruxoїd\Андрухович.Trzaska.Mazolewski.Moretti - Andruxoїd.wav

Пиковый уровень 93.6 %
Скорость извлечения 2.7 X
Качество диапазона 100.0 %
CRC теста C5717F4D
CRC копии C5717F4D
Копирование... OK

Ошибок не произошло

AccurateRip: сводка

Трек 1 отсутствует в базе данных
Трек 2 отсутствует в базе данных
Трек 3 отсутствует в базе данных
Трек 4 отсутствует в базе данных
Трек 5 отсутствует в базе данных
Трек 6 отсутствует в базе данных
Трек 7 отсутствует в базе данных
Трек 8 отсутствует в базе данных
Трек 9 отсутствует в базе данных
Трек 10 отсутствует в базе данных
Трек 11 отсутствует в базе данных
Трек 12 отсутствует в базе данных
Трек 13 отсутствует в базе данных
Трек 14 отсутствует в базе данных
Трек 15 отсутствует в базе данных
Трек 16 отсутствует в базе данных
Трек 17 отсутствует в базе данных
Трек 18 отсутствует в базе данных

Ни одного трека нет в базе AccurateRip

Конец отчёта

==== Контрольная сумма отчёта 271314D46DD5E74621AD26466BFA6EAD1F750F047F2F01D11D7A950F7BCC77B1 ====
Тривалість: 00:58:52
Бітрейт: 653 кб/с
Мова: українська
2015 - Андрухович+Karbido - Атлас Estremo (2CD)
PL

    01. Berlin / Dziennik
    02. Antwerpia / Diamenty
    03. Londyn / 101 Uderzen Tenorem
    04. Nowy Jork / Logos
    05. Moskwa / Kreml
    06. Minsk / Dziwki
    07. Kijow / Radio
    08. Lwow / Woda
    09. Drohobycz / Ropa
    10. Jerozolima / Wiecznosc
    11. Uzhorod / Zapominanie
    12. Warszawa / Pomiedzy
    13. Wroclaw / Kalambur
EAC log
Exact Audio Copy V1.0 beta 3 from 29. August 2011

Отчёт EAC об извлечении, выполненном 29. октября 2015, 13:53

Андрухович+Karbido / Атлас Estremo/PL

Дисковод: HL-DT-STDVD-RAM GSA-H58N Adapter: 0 ID: 0

Режим чтения : Достоверность
Использование точного потока : Да
Отключение кэша аудио : Да
Использование указателей C2 : Нет

Коррекция смещения при чтении : 102
Способность читать области Lead-in и Lead-out : Нет
Заполнение пропущенных сэмплов тишиной : Да
Удаление блоков с тишиной в начале и конце : Нет
При вычислениях CRC использовались нулевые сэмплы : Да
Интерфейс : Встроенный Win32-интерфейс для Win NT/2000

Выходной формат : Пользовательский кодировщик
Выбранный битрейт : 1024 kBit/s
Качество : Высокий
Добавление ID3-тега : Нет
Утилита сжатия : D:\soft_2\EAC\Exact Audio Copy\Flac\flac.exe
Дополнительные параметры : -V -8 -T "Date=%year%" -T "Genre=%genre%" %source%

TOC извлечённого CD

Трек | Старт | Длительность | Начальный сектор | Конечный сектор
---------------------------------------------------------------------
1 | 0:00.00 | 6:09.23 | 0 | 27697
2 | 6:09.23 | 5:53.57 | 27698 | 54229
3 | 12:03.05 | 4:17.44 | 54230 | 73548
4 | 16:20.49 | 2:56.47 | 73549 | 86795
5 | 19:17.21 | 2:35.24 | 86796 | 98444
6 | 21:52.45 | 8:07.16 | 98445 | 134985
7 | 29:59.61 | 5:15.03 | 134986 | 158613
8 | 35:14.64 | 8:58.24 | 158614 | 198987
9 | 44:13.13 | 4:43.58 | 198988 | 220270
10 | 48:56.71 | 4:55.51 | 220271 | 242446
11 | 53:52.47 | 5:12.56 | 242447 | 265902
12 | 59:05.28 | 4:35.20 | 265903 | 286547
13 | 63:40.48 | 11:40.48 | 286548 | 339095

Характеристики диапазона извлечения и сообщения об ошибках

Выбранный диапазон

Имя файла N:\Роздачі\Андрухович+Karbido\Андрухович+Karbido - Атлас Estremo (2015)\PL\Андрухович+Karbido - Атлас Estremo,PL.wav

Пиковый уровень 98.0 %
Скорость извлечения 2.9 X
Качество диапазона 99.9 %
CRC теста 8D19AAB8
CRC копии 8D19AAB8
Копирование... OK

Ошибок не произошло

AccurateRip: сводка

Трек 1 отсутствует в базе данных
Трек 2 отсутствует в базе данных
Трек 3 отсутствует в базе данных
Трек 4 отсутствует в базе данных
Трек 5 отсутствует в базе данных
Трек 6 отсутствует в базе данных
Трек 7 отсутствует в базе данных
Трек 8 отсутствует в базе данных
Трек 9 отсутствует в базе данных
Трек 10 отсутствует в базе данных
Трек 11 отсутствует в базе данных
Трек 12 отсутствует в базе данных
Трек 13 отсутствует в базе данных

Ни одного трека нет в базе AccurateRip

Конец отчёта

==== Контрольная сумма отчёта 6962794572ABF94D473226C00BC5CEFCC8061567459004F65226CF50693B4D1D ====
Тривалість: 01:15:21
Бітрейт: 905 кб/с
Мова: польська
UA

    01. Берлін / Щоденник
    02. Антверпен / Діаманти
    03. Лондон / 101 Удар Тенора
    04. Нью-Йорк / Логос
    05. Москва / Кремль
    06. Мінськ / Повії
    07. Київ / Радіо
    08. Львів / Вода
    09. Дрогобич / Нафта
    10. Єрусалим / Вічність
    11. Ужгород / Забування
    12. Варшава / Поміж
    13. Вроцлав / Каламбур
EAC log
Exact Audio Copy V1.0 beta 3 from 29. August 2011

Отчёт EAC об извлечении, выполненном 29. октября 2015, 12:39

Андрухович+Karbido / Атлас Estremo/UA

Дисковод: HL-DT-STDVD-RAM GSA-H58N Adapter: 0 ID: 0

Режим чтения : Достоверность
Использование точного потока : Да
Отключение кэша аудио : Да
Использование указателей C2 : Нет

Коррекция смещения при чтении : 102
Способность читать области Lead-in и Lead-out : Нет
Заполнение пропущенных сэмплов тишиной : Да
Удаление блоков с тишиной в начале и конце : Нет
При вычислениях CRC использовались нулевые сэмплы : Да
Интерфейс : Встроенный Win32-интерфейс для Win NT/2000

Выходной формат : Пользовательский кодировщик
Выбранный битрейт : 1024 kBit/s
Качество : Высокий
Добавление ID3-тега : Нет
Утилита сжатия : D:\soft_2\EAC\Exact Audio Copy\Flac\flac.exe
Дополнительные параметры : -V -8 -T "Date=%year%" -T "Genre=%genre%" %source%

TOC извлечённого CD

Трек | Старт | Длительность | Начальный сектор | Конечный сектор
---------------------------------------------------------------------
1 | 0:00.00 | 6:24.50 | 0 | 28849
2 | 6:24.50 | 5:52.29 | 28850 | 55278
3 | 12:17.04 | 4:17.40 | 55279 | 74593
4 | 16:34.44 | 2:47.46 | 74594 | 87164
5 | 19:22.15 | 2:36.02 | 87165 | 98866
6 | 21:58.17 | 7:46.22 | 98867 | 133838
7 | 29:44.39 | 5:12.34 | 133839 | 157272
8 | 34:56.73 | 9:07.56 | 157273 | 198353
9 | 44:04.54 | 4:44.53 | 198354 | 219706
10 | 48:49.32 | 4:54.09 | 219707 | 241765
11 | 53:43.41 | 5:29.10 | 241766 | 266450
12 | 59:12.51 | 4:56.61 | 266451 | 288711
13 | 64:09.37 | 12:13.57 | 288712 | 343743

Характеристики диапазона извлечения и сообщения об ошибках

Выбранный диапазон

Имя файла N:\Роздачі\Андрухович+Karbido\Андрухович+Karbido - Атлас Estremo (2015)\UA\Андрухович+Karbido - Атлас Estremo,UA.wav

Пиковый уровень 98.0 %
Скорость извлечения 2.9 X
Качество диапазона 99.9 %
CRC теста 911E6249
CRC копии 911E6249
Копирование... OK

Ошибок не произошло

AccurateRip: сводка

Трек 1 отсутствует в базе данных
Трек 2 отсутствует в базе данных
Трек 3 отсутствует в базе данных
Трек 4 отсутствует в базе данных
Трек 5 отсутствует в базе данных
Трек 6 отсутствует в базе данных
Трек 7 отсутствует в базе данных
Трек 8 отсутствует в базе данных
Трек 9 отсутствует в базе данных
Трек 10 отсутствует в базе данных
Трек 11 отсутствует в базе данных
Трек 12 отсутствует в базе данных
Трек 13 отсутствует в базе данных

Ни одного трека нет в базе AccurateRip

Конец отчёта

==== Контрольная сумма отчёта F352146C508A124B5C591C2E85CF81EBE3307CE08BA0B87D6BF8EA42C82AFD53 ====
Тривалість: 01:16:23
Бітрейт: 903 кб/с
Мова: українська
Видавець: Юрій Андрухович
Виконавці:
    Юрій Андрухович - голос, мегафон, кукабарра
    Paweł Czepułkowski - ударні
    Tomasz Sikora - альт-саксофон, електроніка, samples & fieldrecording
    Maot (Marek Otwinowski) - бас-гітара, голос, свисток

    Музика: Karbido & Андрухович
    Слова: Юрій Андрухович
Тривалість: 03:30:36
Мова: українська, польська
Аудіо-кодек: FLAC
Бітрейт: 653-905 кб/с
Джерело: Власні CD

Мегадяка і найкращі побажання чуваку з ніком jinotot !!!! Без нього цієї роздачі не було б.
Ще одне. Вкладка з текстами у альбомі Атлас Estremo - я її не зміг (чи не схотів)) відсканувати. Тому - просто фото, прошу вибачень.


Срібний реліз (на рейтинг впливає 50% завантаженого)
 Трекер:    Зареєстрований   

Завантажити / скачати українську музику



відео для новачків



 Зареєстрований:   2015-10-30 12:14
 Розмір:   1.27 GB 
 Оцінка музики:   9.8/10 (Голосів: 8)
   
Ваш часовий пояс: GMT + 2 Години

Нова тема   Відповісти